  0
SECTION
  2
HEADER
  9
$ACADVER
  1
AC1015
  9
$ACADMAINTVER
 70
     6
  9
$DWGCODEPAGE
  3
ANSI_1252
  9
$INSBASE
 10
0.0
 20
0.0
 30
0.0
  9
$EXTMIN
 10
0.0
 20
0.0
 30
0.0
  9
$EXTMAX
 10
17.0
 20
11.0
 30
0.0
  9
$LIMMIN
 10
0.0
 20
0.0
  9
$LIMMAX
 10
17.0
 20
11.0
  9
$ORTHOMODE
 70
     0
  9
$REGENMODE
 70
     1
  9
$FILLMODE
 70
     1
  9
$QTEXTMODE
 70
     0
  9
$MIRRTEXT
 70
     1
  9
$LTSCALE
 40
1.0
  9
$ATTMODE
 70
     1
  9
$TEXTSIZE
 40
0.1377952756
  9
$TRACEWID
 40
0.05
  9
$TEXTSTYLE
  7
Standard
  9
$CLAYER
  8
0
  9
$CELTYPE
  6
ByLayer
  9
$CECOLOR
 62
   256
  9
$CELTSCALE
 40
1.0
  9
$DISPSILH
 70
     0
  9
$DIMSCALE
 40
1.0
  9
$DIMASZ
 40
0.2
  9
$DIMEXO
 40
0.05
  9
$DIMDLI
 40
0.38
  9
$DIMRND
 40
0.0
  9
$DIMDLE
 40
0.0
  9
$DIMEXE
 40
0.125
  9
$DIMTP
 40
0.0
  9
$DIMTM
 40
0.0
  9
$DIMTXT
 40
0.1
  9
$DIMCEN
 40
0.09
  9
$DIMTSZ
 40
0.0
  9
$DIMTOL
 70
     0
  9
$DIMLIM
 70
     0
  9
$DIMTIH
 70
     1
  9
$DIMTOH
 70
     1
  9
$DIMSE1
 70
     0
  9
$DIMSE2
 70
     0
  9
$DIMTAD
 70
     0
  9
$DIMZIN
 70
     1
  9
$DIMBLK
  1

  9
$DIMASO
 70
     1
  9
$DIMSHO
 70
     1
  9
$DIMPOST
  1

  9
$DIMAPOST
  1

  9
$DIMALT
 70
     0
  9
$DIMALTD
 70
     2
  9
$DIMALTF
 40
25.4
  9
$DIMLFAC
 40
1.0
  9
$DIMTOFL
 70
     0
  9
$DIMTVP
 40
0.0
  9
$DIMTIX
 70
     0
  9
$DIMSOXD
 70
     0
  9
$DIMSAH
 70
     0
  9
$DIMBLK1
  1

  9
$DIMBLK2
  1

  9
$DIMSTYLE
  2
Standard
  9
$DIMCLRD
 70
     0
  9
$DIMCLRE
 70
     0
  9
$DIMCLRT
 70
     0
  9
$DIMTFAC
 40
1.0
  9
$DIMGAP
 40
0.06
  9
$DIMJUST
 70
     0
  9
$DIMSD1
 70
     0
  9
$DIMSD2
 70
     0
  9
$DIMTOLJ
 70
     1
  9
$DIMTZIN
 70
     1
  9
$DIMALTZ
 70
     0
  9
$DIMALTTZ
 70
     0
  9
$DIMUPT
 70
     0
  9
$DIMDEC
 70
     4
  9
$DIMTDEC
 70
     3
  9
$DIMALTU
 70
     2
  9
$DIMALTTD
 70
     2
  9
$DIMTXSTY
  7
Standard
  9
$DIMAUNIT
 70
     0
  9
$DIMADEC
 70
     0
  9
$DIMALTRND
 40
0.0
  9
$DIMAZIN
 70
     0
  9
$DIMDSEP
 70
    46
  9
$DIMATFIT
 70
     3
  9
$DIMFRAC
 70
     0
  9
$DIMLDRBLK
  1

  9
$DIMLUNIT
 70
     2
  9
$DIMLWD
 70
    -2
  9
$DIMLWE
 70
    -2
  9
$DIMTMOVE
 70
     0
  9
$LUNITS
 70
     2
  9
$LUPREC
 70
     4
  9
$SKETCHINC
 40
0.1
  9
$FILLETRAD
 40
0.5
  9
$AUNITS
 70
     0
  9
$AUPREC
 70
     0
  9
$MENU
  1
.
  9
$ELEVATION
 40
0.0
  9
$PELEVATION
 40
0.0
  9
$THICKNESS
 40
0.0
  9
$LIMCHECK
 70
     0
  9
$CHAMFERA
 40
0.5
  9
$CHAMFERB
 40
0.5
  9
$CHAMFERC
 40
1.0
  9
$CHAMFERD
 40
0.0
  9
$SKPOLY
 70
     0
  9
$TDCREATE
 40
2455854.443761933
  9
$TDUCREATE
 40
2455854.652095266
  9
$TDUPDATE
 40
2455854.443761944
  9
$TDUUPDATE
 40
2455854.652095278
  9
$TDINDWG
 40
0.0000000116
  9
$TDUSRTIMER
 40
0.0000000116
  9
$USRTIMER
 70
     1
  9
$ANGBASE
 50
0.0
  9
$ANGDIR
 70
     0
  9
$PDMODE
 70
     0
  9
$PDSIZE
 40
-1.0
  9
$PLINEWID
 40
0.0
  9
$SPLFRAME
 70
     0
  9
$SPLINETYPE
 70
     6
  9
$SPLINESEGS
 70
     8
  9
$HANDSEED
  5
189
  9
$SURFTAB1
 70
     6
  9
$SURFTAB2
 70
     6
  9
$SURFTYPE
 70
     6
  9
$SURFU
 70
     6
  9
$SURFV
 70
     6
  9
$UCSBASE
  2

  9
$UCSNAME
  2

  9
$UCSORG
 10
0.0
 20
0.0
 30
0.0
  9
$UCSXDIR
 10
1.0
 20
0.0
 30
0.0
  9
$UCSYDIR
 10
0.0
 20
1.0
 30
0.0
  9
$UCSORTHOREF
  2

  9
$UCSORTHOVIEW
 70
     0
  9
$UCSORGTOP
 10
0.0
 20
0.0
 30
0.0
  9
$UCSORGBOTTOM
 10
0.0
 20
0.0
 30
0.0
  9
$UCSORGLEFT
 10
0.0
 20
0.0
 30
0.0
  9
$UCSORGRIGHT
 10
0.0
 20
0.0
 30
0.0
  9
$UCSORGFRONT
 10
0.0
 20
0.0
 30
0.0
  9
$UCSORGBACK
 10
0.0
 20
0.0
 30
0.0
  9
$PUCSBASE
  2

  9
$PUCSNAME
  2

  9
$PUCSORG
 10
0.0
 20
0.0
 30
0.0
  9
$PUCSXDIR
 10
1.0
 20
0.0
 30
0.0
  9
$PUCSYDIR
 10
0.0
 20
1.0
 30
0.0
  9
$PUCSORTHOREF
  2

  9
$PUCSORTHOVIEW
 70
     0
  9
$PUCSORGTOP
 10
0.0
 20
0.0
 30
0.0
  9
$PUCSORGBOTTOM
 10
0.0
 20
0.0
 30
0.0
  9
$PUCSORGLEFT
 10
0.0
 20
0.0
 30
0.0
  9
$PUCSORGRIGHT
 10
0.0
 20
0.0
 30
0.0
  9
$PUCSORGFRONT
 10
0.0
 20
0.0
 30
0.0
  9
$PUCSORGBACK
 10
0.0
 20
0.0
 30
0.0
  9
$USERI1
 70
     0
  9
$USERI2
 70
     0
  9
$USERI3
 70
     0
  9
$USERI4
 70
     0
  9
$USERI5
 70
     0
  9
$USERR1
 40
0.0
  9
$USERR2
 40
0.0
  9
$USERR3
 40
0.0
  9
$USERR4
 40
0.0
  9
$USERR5
 40
0.0
  9
$WORLDVIEW
 70
     1
  9
$SHADEDGE
 70
     3
  9
$SHADEDIF
 70
    70
  9
$TILEMODE
 70
     1
  9
$MAXACTVP
 70
    64
  9
$PINSBASE
 10
0.0
 20
0.0
 30
0.0
  9
$PLIMCHECK
 70
     0
  9
$PEXTMIN
 10
1.0000000000E+20
 20
1.0000000000E+20
 30
1.0000000000E+20
  9
$PEXTMAX
 10
-1.0000000000E+20
 20
-1.0000000000E+20
 30
-1.0000000000E+20
  9
$PLIMMIN
 10
0.0
 20
0.0
  9
$PLIMMAX
 10
12.0
 20
9.0
  9
$UNITMODE
 70
     0
  9
$VISRETAIN
 70
     1
  9
$PLINEGEN
 70
     0
  9
$PSLTSCALE
 70
     1
  9
$TREEDEPTH
 70
  3020
  9
$CMLSTYLE
  2
Standard
  9
$CMLJUST
 70
     0
  9
$CMLSCALE
 40
1.0
  9
$PROXYGRAPHICS
 70
     1
  9
$MEASUREMENT
 70
     0
  9
$CELWEIGHT
370
    -1
  9
$ENDCAPS
280
     0
  9
$JOINSTYLE
280
     0
  9
$LWDISPLAY
290
     1
  9
$INSUNITS
 70
     1
  9
$HYPERLINKBASE
  1

  9
$STYLESHEET
  1

  9
$XEDIT
290
     1
  9
$CEPSNTYPE
380
     0
  9
$PSTYLEMODE
290
     1
  9
$FINGERPRINTGUID
  2
{11EEA8D0-D8CA-42D4-9CDD-69EC6C57492F}
  9
$VERSIONGUID
  2
{FAEB1C32-E019-11D5-929B-00C0DF256EC4}
  9
$EXTNAMES
290
     1
  9
$PSVPSCALE
 40
0.0
  9
$OLESTARTUP
290
     0
  0
ENDSEC
  0
SECTION
  2
CLASSES
  0
CLASS
  1
ACDBDICTIONARYWDFLT
  2
AcDbDictionaryWithDefault
  3
ObjectDBX Classes
 90
        0
280
     0
281
     0
  0
CLASS
  1
VISUALSTYLE
  2
AcDbVisualStyle
  3
ObjectDBX Classes
 90
     4095
280
     0
281
     0
  0
CLASS
  1
MATERIAL
  2
AcDbMaterial
  3
ObjectDBX Classes
 90
     1153
280
     0
281
     0
  0
CLASS
  1
ACDBPLACEHOLDER
  2
AcDbPlaceHolder
  3
ObjectDBX Classes
 90
        0
280
     0
281
     0
  0
CLASS
  1
LAYOUT
  2
AcDbLayout
  3
ObjectDBX Classes
 90
        0
280
     0
281
     0
  0
ENDSEC
  0
SECTION
  2
TABLES
  0
TABLE
  2
VPORT
  5
8
330
0
100
AcDbSymbolTable
 70
     1
  0
VPORT
  5
29
330
8
100
AcDbSymbolTableRecord
100
AcDbViewportTableRecord
  2
*Active
 70
     0
 10
0.0
 20
0.0
 11
1.0
 21
1.0
 12
8.5
 22
5.5
 13
0.0
 23
0.0
 14
0.5
 24
0.5
 15
0.5
 25
0.5
 16
0.0
 26
0.0
 36
1.0
 17
0.0
 27
0.0
 37
0.0
 40
11.0
 41
1.5454545455
 42
50.0
 43
0.0
 44
0.0
 50
0.0
 51
0.0
 71
     0
 72
  2000
 73
     1
 74
     3
 75
     0
 76
     0
 77
     0
 78
     0
281
     0
 65
     1
110
0.0
120
0.0
130
0.0
111
1.0
121
0.0
131
0.0
112
0.0
122
1.0
132
0.0
 79
     0
146
0.0
  0
ENDTAB
  0
TABLE
  2
LTYPE
  5
5
330
0
100
AcDbSymbolTable
 70
     6
  0
LTYPE
  5
14
330
5
100
AcDbSymbolTableRecord
100
AcDbLinetypeTableRecord
  2
ByBlock
 70
     0
  3

 72
    65
 73
     0
 40
0.0
  0
LTYPE
  5
15
330
5
100
AcDbSymbolTableRecord
100
AcDbLinetypeTableRecord
  2
ByLayer
 70
     0
  3

 72
    65
 73
     0
 40
0.0
  0
LTYPE
  5
16
330
5
100
AcDbSymbolTableRecord
100
AcDbLinetypeTableRecord
  2
Continuous
 70
     0
  3
Solid line
 72
    65
 73
     0
 40
0.0
  0
LTYPE
  5
3F
330
5
100
AcDbSymbolTableRecord
100
AcDbLinetypeTableRecord
  2
HIDDEN
 70
     0
  3
Hidden __ __ __ __ __ __ __ __ __ __ __ __ __ __
 72
    65
 73
     2
 40
0.075
 49
0.05
 74
     0
 49
-0.025
 74
     0
  0
LTYPE
  5
40
330
5
100
AcDbSymbolTableRecord
100
AcDbLinetypeTableRecord
  2
PHANTOM
 70
     0
  3
Phantom ______  __  __  ______  __  __  ______
 72
    65
 73
     6
 40
0.5
 49
0.25
 74
     0
 49
-0.05
 74
     0
 49
0.05
 74
     0
 49
-0.05
 74
     0
 49
0.05
 74
     0
 49
-0.05
 74
     0
  0
LTYPE
  5
41
330
5
100
AcDbSymbolTableRecord
100
AcDbLinetypeTableRecord
  2
CENTER
 70
     0
  3
Center ____ _ ____ _ ____ _ ____ _ ____ _ ____
 72
    65
 73
     4
 40
0.4
 49
0.25
 74
     0
 49
-0.05
 74
     0
 49
0.05
 74
     0
 49
-0.05
 74
     0
  0
LTYPE
  5
42
330
5
100
AcDbSymbolTableRecord
100
AcDbLinetypeTableRecord
  2
CENTERX2
 70
     0
  3
Center (2x) ________  __  ________  __  _____
 72
    65
 73
     4
 40
0.8
 49
0.5
 74
     0
 49
-0.1
 74
     0
 49
0.1
 74
     0
 49
-0.1
 74
     0
  0
LTYPE
  5
43
330
5
100
AcDbSymbolTableRecord
100
AcDbLinetypeTableRecord
  2
DOT2
 70
     0
  3
Dot (.5x) ........................................
 72
    65
 73
     2
 40
0.025
 49
0.0
 74
     0
 49
-0.025
 74
     0
  0
ENDTAB
  0
TABLE
  2
LAYER
  5
2
330
0
100
AcDbSymbolTable
 70
     7
  0
LAYER
  5
10
330
2
100
AcDbSymbolTableRecord
100
AcDbLayerTableRecord
  2
0
 70
     0
 62
     7
  6
Continuous
370
    -3
390
F
  0
LAYER
  5
44
330
2
100
AcDbSymbolTableRecord
100
AcDbLayerTableRecord
  2
SLD-0
 70
     0
 62
     7
  6
Continuous
370
    -3
390
F
  0
LAYER
  5
45
330
2
100
AcDbSymbolTableRecord
100
AcDbLayerTableRecord
  2
BORD
 70
     0
 62
     7
  6
Continuous
370
    -3
390
F
  0
LAYER
  5
46
330
2
100
AcDbSymbolTableRecord
100
AcDbLayerTableRecord
  2
TEXT
 70
     0
 62
     1
  6
Continuous
370
    -3
390
F
  0
LAYER
  5
47
330
2
100
AcDbSymbolTableRecord
100
AcDbLayerTableRecord
  2
TEXTF
 70
     0
 62
   150
  6
Continuous
370
    -3
390
F
  0
LAYER
  5
48
330
2
100
AcDbSymbolTableRecord
100
AcDbLayerTableRecord
  2
BTEXTF
 70
     0
 62
     5
  6
Continuous
370
    -3
390
F
  0
LAYER
  5
49
330
2
100
AcDbSymbolTableRecord
100
AcDbLayerTableRecord
  2
OBJ
 70
     0
 62
     7
  6
Continuous
370
    -3
390
F
  0
ENDTAB
  0
TABLE
  2
STYLE
  5
3
330
0
100
AcDbSymbolTable
 70
     2
  0
STYLE
  5
11
330
3
100
AcDbSymbolTableRecord
100
AcDbTextStyleTableRecord
  2
Standard
 70
     0
 40
0.0
 41
1.0
 50
0.0
 71
     0
 42
0.2
  3
txt
  4

  0
STYLE
  5
4A
330
3
100
AcDbSymbolTableRecord
100
AcDbTextStyleTableRecord
  2
SLDTEXTSTYLE0
 70
     0
 40
0.0
 41
0.75
 50
0.0
 71
     0
 42
0.2
  3
TXT
  4

  0
ENDTAB
  0
TABLE
  2
VIEW
  5
6
330
0
100
AcDbSymbolTable
 70
     0
  0
ENDTAB
  0
TABLE
  2
UCS
  5
7
330
0
100
AcDbSymbolTable
 70
     0
  0
ENDTAB
  0
TABLE
  2
APPID
  5
9
330
0
100
AcDbSymbolTable
 70
     1
  0
APPID
  5
12
330
9
100
AcDbSymbolTableRecord
100
AcDbRegAppTableRecord
  2
ACAD
 70
     0
  0
ENDTAB
  0
TABLE
  2
DIMSTYLE
  5
A
330
0
100
AcDbSymbolTable
 70
     3
100
AcDbDimStyleTable
  0
DIMSTYLE
105
27
330
A
100
AcDbSymbolTableRecord
100
AcDbDimStyleTableRecord
  2
Standard
 70
     0
178
     0
340
11
  0
DIMSTYLE
105
CA
102
{ACAD_REACTORS
330
C9
102
}
330
A
100
AcDbSymbolTableRecord
100
AcDbDimStyleTableRecord
  2
SLDDIMSTYLE0
 70
     0
 41
0.2
 44
0.0
 45
0.000000001
 78
     4
 79
     1
140
0.1
147
0.025
173
     1
178
     0
272
     3
276
     2
284
    12
340
4A
  0
DIMSTYLE
105
D6
102
{ACAD_REACTORS
330
D5
102
}
330
A
100
AcDbSymbolTableRecord
100
AcDbDimStyleTableRecord
  2
SLDDIMSTYLE1
 70
     0
 41
0.2
 44
0.0
 45
0.000000001
 78
    12
 79
     3
140
0.1
147
0.025
173
     1
178
     0
272
     3
276
     2
284
    12
340
4A
  0
ENDTAB
  0
TABLE
  2
BLOCK_RECORD
  5
1
330
0
100
AcDbSymbolTable
 70
     3
  0
BLOCK_RECORD
  5
1F
330
1
100
AcDbSymbolTableRecord
100
AcDbBlockTableRecord
  2
*Model_Space
340
22
  0
BLOCK_RECORD
  5
1B
330
1
100
AcDbSymbolTableRecord
100
AcDbBlockTableRecord
  2
*Paper_Space
340
1E
  0
BLOCK_RECORD
  5
23
330
1
100
AcDbSymbolTableRecord
100
AcDbBlockTableRecord
  2
*Paper_Space0
340
26
  0
BLOCK_RECORD
  5
CB
330
1
100
AcDbSymbolTableRecord
100
AcDbBlockTableRecord
  2
*D1
340
0
  0
BLOCK_RECORD
  5
D7
330
1
100
AcDbSymbolTableRecord
100
AcDbBlockTableRecord
  2
*D2
340
0
  0
ENDTAB
  0
ENDSEC
  0
SECTION
  2
BLOCKS
  0
BLOCK
  5
20
330
1F
100
AcDbEntity
  8
0
100
AcDbBlockBegin
  2
*Model_Space
 70
     0
 10
0.0
 20
0.0
 30
0.0
  3
*Model_Space
  1

  0
ENDBLK
  5
21
330
1F
100
AcDbEntity
  8
0
100
AcDbBlockEnd
  0
BLOCK
  5
1C
330
1B
100
AcDbEntity
 67
     1
  8
0
100
AcDbBlockBegin
  2
*Paper_Space
 70
     0
 10
0.0
 20
0.0
 30
0.0
  3
*Paper_Space
  1

  0
ENDBLK
  5
1D
330
1B
100
AcDbEntity
 67
     1
  8
0
100
AcDbBlockEnd
  0
BLOCK
  5
24
330
23
100
AcDbEntity
  8
0
100
AcDbBlockBegin
  2
*Paper_Space0
 70
     0
 10
0.0
 20
0.0
 30
0.0
  3
*Paper_Space0
  1

  0
ENDBLK
  5
25
330
23
100
AcDbEntity
  8
0
100
AcDbBlockEnd
  0
BLOCK
  5
CC
330
CB
100
AcDbEntity
  8
0
100
AcDbBlockBegin
  2
*D1
 70
     1
 10
0.0
 20
0.0
 30
0.0
  3
*D1
  1

  0
SOLID
  5
CE
330
CB
100
AcDbEntity
  8
TEXTF
100
AcDbTrace
 10
10.4734768672
 20
0.0968566492
 30
0.0
 11
10.5068102006
 21
0.2968566492
 31
0.0
 12
10.4401435339
 22
0.2968566492
 32
0.0
 13
10.4401435339
 23
0.2968566492
 33
0.0
  0
SOLID
  5
CF
330
CB
100
AcDbEntity
  8
TEXTF
100
AcDbTrace
 10
10.4734768672
 20
8.4538566492
 30
0.0
 11
10.4401435339
 21
8.2538566492
 31
0.0
 12
10.5068102006
 22
8.2538566492
 32
0.0
 13
10.5068102006
 23
8.2538566492
 33
0.0
  0
LINE
  5
D0
330
CB
100
AcDbEntity
  8
TEXTF
100
AcDbLine
 10
9.7775422222
 20
0.0968566492
 30
0.0
 11
10.5984768672
 21
0.0968566492
 31
0.0
  0
LINE
  5
D1
330
CB
100
AcDbEntity
  8
TEXTF
100
AcDbLine
 10
9.343401021
 20
8.4538566492
 30
0.0
 11
10.5984768672
 21
8.4538566492
 31
0.0
  0
LINE
  5
D2
330
CB
100
AcDbEntity
  8
TEXTF
100
AcDbLine
 10
10.4734768672
 20
0.0968566492
 30
0.0
 11
10.4734768672
 21
5.9473446424
 31
0.0
  0
LINE
  5
D3
330
CB
100
AcDbEntity
  8
TEXTF
100
AcDbLine
 10
10.4734768672
 20
8.4538566492
 30
0.0
 11
10.4734768672
 21
6.1060946435
 31
0.0
  0
MTEXT
  5
D4
330
CB
100
AcDbEntity
  8
TEXTF
100
AcDbMText
 10
10.2296574055
 20
6.0762514164
 30
0.0039370079
 40
0.1
 41
0.0
 71
     1
 72
     1
  1
8.3570
  7
SLDTEXTSTYLE0
 73
     1
 44
1.0
  0
ENDBLK
  5
CD
330
CB
100
AcDbEntity
  8
0
100
AcDbBlockEnd
  0
BLOCK
  5
D8
330
D7
100
AcDbEntity
  8
0
100
AcDbBlockBegin
  2
*D2
 70
     1
 10
0.0
 20
0.0
 30
0.0
  3
*D2
  1

  0
SOLID
  5
DA
330
D7
100
AcDbEntity
  8
TEXTF
100
AcDbTrace
 10
10.0477128144
 20
9.1081757218
 30
0.0
 11
9.8477128144
 21
9.1415090551
 31
0.0
 12
9.8477128144
 22
9.0748423885
 32
0.0
 13
9.8477128144
 23
9.0748423885
 33
0.0
  0
SOLID
  5
DB
330
D7
100
AcDbEntity
  8
TEXTF
100
AcDbTrace
 10
7.50737163
 20
9.1081757218
 30
0.0
 11
7.70737163
 21
9.0748423885
 31
0.0
 12
7.70737163
 22
9.1415090551
 32
0.0
 13
7.70737163
 23
9.1415090551
 33
0.0
  0
LINE
  5
DC
330
D7
100
AcDbEntity
  8
TEXTF
100
AcDbLine
 10
10.0477128144
 20
3.1918566492
 30
0.0
 11
10.0477128144
 21
9.2331757218
 31
0.0
  0
LINE
  5
DD
330
D7
100
AcDbEntity
  8
TEXTF
100
AcDbLine
 10
7.50737163
 20
3.1918566492
 30
0.0
 11
7.50737163
 21
9.2331757218
 31
0.0
  0
LINE
  5
DE
330
D7
100
AcDbEntity
  8
TEXTF
100
AcDbLine
 10
10.0477128144
 20
9.1081757218
 30
0.0
 11
8.8119991538
 21
9.1081757218
 31
0.0
  0
LINE
  5
DF
330
D7
100
AcDbEntity
  8
TEXTF
100
AcDbLine
 10
7.50737163
 20
9.1081757218
 30
0.0
 11
8.3243602304
 21
9.1081757218
 31
0.0
  0
MTEXT
  5
E0
330
D7
100
AcDbEntity
  8
TEXTF
100
AcDbMText
 10
8.3243602304
 20
9.1577074952
 30
0.0039370079
 40
0.1
 41
0.0
 71
     1
 72
     1
  1
2.5403
  7
SLDTEXTSTYLE0
 73
     1
 44
1.0
  0
ENDBLK
  5
D9
330
D7
100
AcDbEntity
  8
0
100
AcDbBlockEnd
  0
ENDSEC
  0
SECTION
  2
ENTITIES
  0
MTEXT
  5
4B
330
1F
100
AcDbEntity
  8
TEXTF
100
AcDbMText
 10
12.9981856272
 20
9.8233089575
 30
0.0
 40
0.1666666667
 41
0.0
 71
     1
 72
     1
  1
7022
  7
SLDTEXTSTYLE0
 73
     1
 44
1.0
  0
LINE
  5
4C
330
1F
100
AcDbEntity
  8
0
  6
Continuous
 62
     7
370
    15
100
AcDbLine
 10
9.8775422222
 20
3.2668566492
 30
0.0
 11
9.8775422222
 21
4.4368566492
 31
0.0
  0
LINE
  5
4D
330
1F
100
AcDbEntity
  8
0
  6
Continuous
 62
     7
370
    15
100
AcDbLine
 10
7.6775422222
 20
4.4368566492
 30
0.0
 11
7.6775422222
 21
3.2668566492
 31
0.0
  0
LINE
  5
4E
330
1F
100
AcDbEntity
  8
0
  6
Continuous
 62
     7
370
    15
100
AcDbLine
 10
7.6775422222
 20
0.2468566492
 30
0.0
 11
7.8275422222
 21
0.0968566492
 31
0.0
  0
LINE
  5
4F
330
1F
100
AcDbEntity
  8
0
  6
Continuous
 62
     7
370
    15
100
AcDbLine
 10
9.7275422222
 20
0.0968566492
 30
0.0
 11
9.8775422222
 21
0.2468566492
 31
0.0
  0
LINE
  5
50
330
1F
100
AcDbEntity
  8
0
  6
Continuous
 62
     7
370
    15
100
AcDbLine
 10
7.6775422222
 20
1.5968566492
 30
0.0
 11
7.6775422222
 21
0.2468566492
 31
0.0
  0
LINE
  5
51
330
1F
100
AcDbEntity
  8
0
  6
Continuous
 62
     7
370
    15
100
AcDbLine
 10
9.8775422222
 20
0.2468566492
 30
0.0
 11
9.8775422222
 21
1.5968566492
 31
0.0
  0
LINE
  5
52
330
1F
100
AcDbEntity
  8
0
  6
Continuous
 62
     7
370
    15
100
AcDbLine
 10
9.8775422222
 20
4.4368566492
 30
0.0
 11
9.7975422222
 21
4.5168566492
 31
0.0
  0
LINE
  5
53
330
1F
100
AcDbEntity
  8
0
  6
Continuous
 62
     7
370
    15
100
AcDbLine
 10
7.7575422222
 20
4.5168566492
 30
0.0
 11
7.6775422222
 21
4.4368566492
 31
0.0
  0
LINE
  5
54
330
1F
100
AcDbEntity
  8
0
  6
Continuous
 62
     7
370
    15
100
AcDbLine
 10
9.7975422222
 20
4.5168566492
 30
0.0
 11
9.7975422222
 21
6.8918566492
 31
0.0
  0
LINE
  5
55
330
1F
100
AcDbEntity
  8
0
  6
Continuous
 62
     7
370
    15
100
AcDbLine
 10
7.7575422222
 20
6.8918566492
 30
0.0
 11
7.7575422222
 21
4.5168566492
 31
0.0
  0
ARC
  5
56
330
1F
100
AcDbEntity
  8
0
  6
Continuous
 62
     7
370
    15
100
AcDbCircle
 10
8.2616834234
 20
8.3288566492
 30
0.0
 40
0.1250000000000018
100
AcDbArc
 50
90.0
 51
142.705531352
  0
LWPOLYLINE
  5
57
330
1F
100
AcDbEntity
  8
0
  6
Continuous
 62
     7
370
    15
100
AcDbPolyline
 90
        3
 70
   128
 43
0.0
 10
8.1443870884
 20
8.372060466
 10
8.1382161468
 20
8.3483715561
 10
8.1368113438
 20
8.3232030015
  0
ARC
  5
58
330
1F
100
AcDbEntity
  8
0
  6
Continuous
 62
     7
370
    15
100
AcDbCircle
 10
9.293401021
 20
8.3288566492
 30
0.0
 40
0.1250000000000018
100
AcDbArc
 50
36.157597506
 51
90.0
  0
ARC
  5
59
330
1F
100
AcDbEntity
  8
0
  6
Continuous
 62
     7
370
    15
100
AcDbCircle
 10
8.2616834234
 20
8.1986910425
 30
0.0
 40
0.1250000000000022
100
AcDbArc
 50
216.157597506
 51
253.4708565526
  0
ARC
  5
5A
330
1F
100
AcDbEntity
  8
0
  6
Continuous
 62
     7
370
    15
100
AcDbCircle
 10
9.293401021
 20
8.1986910425
 30
0.0
 40
0.1250000000000022
100
AcDbArc
 50
286.5291434474
 51
322.705531352
  0
ARC
  5
5B
330
1F
100
AcDbEntity
  8
0
  6
Continuous
 62
     7
370
    15
100
AcDbCircle
 10
9.293401021
 20
8.1986910425
 30
0.0
 40
0.1250000000000014
100
AcDbArc
 50
339.7797092972
 51
2.5923255361
  0
LINE
  5
5C
330
1F
100
AcDbEntity
  8
0
  6
Continuous
 62
     7
370
    15
100
AcDbLine
 10
9.3325422222
 20
7.8918566492
 30
0.0
 11
9.3325422222
 21
8.0775220202
 31
0.0
  0
LINE
  5
5D
330
1F
100
AcDbEntity
  8
0
  6
Continuous
 62
     7
370
    15
100
AcDbLine
 10
8.2225422222
 20
8.0775220202
 30
0.0
 11
8.2225422222
 21
7.8918566492
 31
0.0
  0
LINE
  5
5E
330
1F
100
AcDbEntity
  8
0
  6
Continuous
 62
     7
370
    15
100
AcDbLine
 10
9.3325422222
 20
8.0775220202
 30
0.0
 11
9.3289638974
 21
8.0788566492
 31
0.0
  0
LINE
  5
5F
330
1F
100
AcDbEntity
  8
0
  6
Continuous
 62
     7
370
    15
100
AcDbLine
 10
8.2261205471
 20
8.0788566492
 30
0.0
 11
8.2225422222
 21
8.0775220202
 31
0.0
  0
LINE
  5
60
330
1F
100
AcDbEntity
  8
0
  6
Continuous
 62
     7
370
    15
100
AcDbLine
 10
9.955292441
 20
7.7701854075
 30
0.0
 11
9.9551922729
 21
7.7728652886
 31
0.0
  0
ARC
  5
61
330
1F
100
AcDbEntity
  8
0
  6
Continuous
 62
     7
370
    15
100
AcDbCircle
 10
9.8303367714
 20
7.7668566492
 30
0.0
 40
0.125
100
AcDbArc
 50
38.6073420299
 51
90.0
  0
LINE
  5
62
330
1F
100
AcDbEntity
  8
0
  6
Continuous
 62
     7
370
    15
100
AcDbLine
 10
7.5997920035
 20
7.0135278908
 30
0.0
 11
7.5998921716
 21
7.0108480097
 31
0.0
  0
ARC
  5
63
330
1F
100
AcDbEntity
  8
0
  6
Continuous
 62
     7
370
    15
100
AcDbCircle
 10
7.7247476731
 20
7.0168566492
 30
0.0
 40
0.1249999999999991
100
AcDbArc
 50
218.6073420299
 51
270.0
  0
ARC
  5
64
330
1F
100
AcDbEntity
  8
0
  6
Continuous
 62
     7
370
    15
100
AcDbCircle
 10
7.7247476731
 20
7.7668566492
 30
0.0
 40
0.125
100
AcDbArc
 50
90.0
 51
146.3472346205
  0
LWPOLYLINE
  5
65
330
1F
100
AcDbEntity
  8
0
  6
Continuous
 62
     7
370
    15
100
AcDbPolyline
 90
        3
 70
   128
 43
0.0
 10
7.6070748665
 20
7.8090242979
 10
7.6012802886
 20
7.7863708737
 10
7.5998756292
 20
7.7612022128
  0
ARC
  5
66
330
1F
100
AcDbEntity
  8
0
  6
Continuous
 62
     7
370
    15
100
AcDbCircle
 10
9.8303367714
 20
7.0168566492
 30
0.0
 40
0.1250000000000006
100
AcDbArc
 50
270.0
 51
326.3472346205
  0
LWPOLYLINE
  5
67
330
1F
100
AcDbEntity
  8
0
  6
Continuous
 62
     7
370
    15
100
AcDbPolyline
 90
        3
 70
   128
 43
0.0
 10
9.9480095779
 20
6.9746890004
 10
9.9538041559
 20
6.9973424246
 10
9.9552088153
 20
7.0225110855
  0
ARC
  5
68
330
1F
100
AcDbEntity
  8
0
  6
Continuous
 62
     7
370
    15
100
AcDbCircle
 10
7.63237163
 20
1.7218566492
 30
0.0
 40
0.1250000000000004
100
AcDbArc
 50
218.8281874174
 51
270.0
  0
ARC
  5
69
330
1F
100
AcDbEntity
  8
0
  6
Continuous
 62
     7
370
    15
100
AcDbCircle
 10
9.9227128144
 20
3.1418566492
 30
0.0
 40
0.1250000000000004
100
AcDbArc
 50
38.8281874174
 51
90.0
  0
ARC
  5
6A
330
1F
100
AcDbEntity
  8
0
  6
Continuous
 62
     7
370
    15
100
AcDbCircle
 10
7.63237163
 20
3.1418566492
 30
0.0
 40
0.1250000000000004
100
AcDbArc
 50
90.0
 51
123.5052639154
  0
LWPOLYLINE
  5
6B
330
1F
100
AcDbEntity
  8
0
  6
Continuous
 62
     7
370
    15
100
AcDbPolyline
 90
        3
 70
   128
 43
0.0
 10
7.5145299066
 20
3.1835499127
 10
7.508904236
 20
3.1613708135
 10
7.5074995893
 20
3.1362021432
  0
ARC
  5
6C
330
1F
100
AcDbEntity
  8
0
  6
Continuous
 62
     7
370
    15
100
AcDbCircle
 10
9.9227128144
 20
1.7218566492
 30
0.0
 40
0.125
100
AcDbArc
 50
270.0
 51
303.5052639154
  0
LWPOLYLINE
  5
6D
330
1F
100
AcDbEntity
  8
0
  6
Continuous
 62
     7
370
    15
100
AcDbPolyline
 90
        3
 70
   128
 43
0.0
 10
10.0405545379
 20
1.6801633856
 10
10.0461802085
 20
1.7023424848
 10
10.0475848552
 20
1.7275111551
  0
SPLINE
  5
6E
330
1F
100
AcDbEntity
  8
0
  6
Continuous
 62
     7
370
    15
100
AcDbSpline
210
0.0
220
0.0
230
1.0
 70
     8
 71
     3
 72
    22
 73
    18
 74
     0
 42
0.00000001
 43
0.00000001
 40
0.0
 40
0.0
 40
0.0
 40
0.0
 40
0.0624999999999998
 40
0.0624999999999998
 40
0.1249999999999996
 40
0.1249999999999996
 40
0.1874999999999994
 40
0.1874999999999994
 40
0.2499999999999993
 40
0.2499999999999993
 40
0.3749999999999992
 40
0.3749999999999992
 40
0.4999999999999992
 40
0.4999999999999992
 40
0.7499999999999996
 40
0.7499999999999996
 40
1.0
 40
1.0
 40
1.0
 40
1.0
 10
8.142456926113628
 20
3.141856649153662
 30
0.0
 10
8.142456926113628
 20
3.149682740452372
 30
0.0
 10
8.14172641977733
 20
3.157277861804715
 30
0.0
 10
8.139007006707764
 20
3.171906913252297
 30
0.0
 10
8.13707343083601
 20
3.178657014893701
 30
0.0
 10
8.132418652156272
 20
3.191118750951365
 30
0.0
 10
8.129760947228297
 20
3.196679418769125
 30
0.0
 10
8.123983043934059
 20
3.206862369384012
 30
0.0
 10
8.120838741233955
 20
3.211499583458914
 30
0.0
 10
8.111116563269656
 20
3.223985677621396
 30
0.0
 10
8.104197670767729
 20
3.23058186915838
 30
0.0
 10
8.08982896192881
 20
3.241677125948376
 30
0.0
 10
8.08243002613193
 20
3.246093319126808
 30
0.0
 10
8.060199753893293
 20
3.256883571113909
 30
0.0
 10
8.045140061240984
 20
3.260987292913341
 30
0.0
 10
8.014773609998135
 20
3.26600749764732
 30
0.0
 10
7.999442668579818
 20
3.266856649153663
 30
0.0
 10
7.984143425264737
 20
3.266856649153663
 30
0.0
  0
LINE
  5
6F
330
1F
100
AcDbEntity
  8
0
  6
Continuous
 62
     7
370
    15
100
AcDbLine
 10
7.9841434253
 20
3.2668566492
 30
0.0
 11
8.4590839278
 21
3.2668566492
 31
0.0
  0
SPLINE
  5
70
330
1F
100
AcDbEntity
  8
0
  6
Continuous
 62
     7
370
    15
100
AcDbSpline
210
0.0
220
0.0
230
1.0
 70
     8
 71
     3
 72
    24
 73
    20
 74
     0
 42
0.00000001
 43
0.00000001
 40
0.0
 40
0.0
 40
0.0
 40
0.0
 40
0.2500000000000004
 40
0.2500000000000004
 40
0.3750000000000003
 40
0.3750000000000003
 40
0.5000000000000002
 40
0.5000000000000002
 40
0.6250000000000001
 40
0.6250000000000001
 40
0.75
 40
0.75
 40
0.8125
 40
0.8125
 40
0.875
 40
0.875
 40
0.9375
 40
0.9375
 40
1.0
 40
1.0
 40
1.0
 40
1.0
 10
8.459083927811411
 20
3.266856649153663
 30
0.0
 10
8.428460827389271
 20
3.266856649153663
 30
0.0
 10
8.39789283910053
 20
3.266014076376664
 30
0.0
 10
8.352205293736555
 20
3.262236248155103
 30
0.0
 10
8.337003771648819
 20
3.260554101308186
 30
0.0
 10
8.306677271748574
 20
3.256019573065976
 30
0.0
 10
8.29155147603007
 20
3.253165736848983
 30
0.0
 10
8.26179073098366
 20
3.245893036441803
 30
0.0
 10
8.247069791289018
 20
3.241464253637737
 30
0.0
 10
8.21843163088775
 20
3.230335005713872
 30
0.0
 10
8.204706468596537
 20
3.223738616471805
 30
0.0
 10
8.185535449225366
 20
3.211382873112969
 30
0.0
 10
8.179383843956689
 20
3.206849557925286
 30
0.0
 10
8.16776276295803
 20
3.196597919380589
 30
0.0
 10
8.162402393984161
 20
3.190965334827893
 30
0.0
 10
8.15315862805596
 20
3.178547100075721
 30
0.0
 10
8.149287240525634
 20
3.171738271667486
 30
0.0
 10
8.143946075122471
 20
3.157335037426209
 30
0.0
 10
8.142456926113628
 20
3.149526333587366
 30
0.0
 10
8.142456926113628
 20
3.141856649153662
 30
0.0
  0
SPLINE
  5
71
330
1F
100
AcDbEntity
  8
0
  6
Continuous
 62
     7
370
    15
100
AcDbSpline
210
0.0
220
0.0
230
1.0
 70
     8
 71
     3
 72
    22
 73
    18
 74
     0
 42
0.00000001
 43
0.00000001
 40
0.0
 40
0.0
 40
0.0
 40
0.0
 40
0.2499999999999998
 40
0.2499999999999998
 40
0.3749999999999998
 40
0.3749999999999998
 40
0.4999999999999997
 40
0.4999999999999997
 40
0.6249999999999996
 40
0.6249999999999996
 40
0.7499999999999996
 40
0.7499999999999996
 40
0.8749999999999994
 40
0.8749999999999994
 40
0.9374999999999997
 40
0.9374999999999997
 40
1.0
 40
1.0
 40
1.0
 40
1.0
 10
7.984143425264734
 20
1.596856649153663
 30
0.0
 10
7.999445741211613
 20
1.596856649153663
 30
0.0
 10
8.014769614874824
 20
1.597698835596697
 30
0.0
 10
8.037675943140078
 20
1.601495209997531
 30
0.0
 10
8.045285234953957
 20
1.603184739340991
 30
0.0
 10
8.060432258543935
 20
1.607724236252965
 30
0.0
 10
8.067988515418971
 20
1.610582036042605
 30
0.0
 10
8.08281896038533
 20
1.617838504100189
 30
0.0
 10
8.090109982445496
 20
1.622228801593077
 30
0.0
 10
8.104325948268066
 20
1.633255563612416
 30
0.0
 10
8.111324720756482
 20
1.639950990600518
 30
0.0
 10
8.124235672172363
 20
1.656621579659544
 30
0.0
 10
8.13021905629816
 20
1.66665888468095
 30
0.0
 10
8.137088208026514
 20
1.685119710663331
 30
0.0
 10
8.13903146892135
 20
1.691932933105898
 30
0.0
 10
8.141707632142436
 20
1.706339425490482
 30
0.0
 10
8.14245692611367
 20
1.714069746589088
 30
0.0
 10
8.142456926113672
 20
1.721856649153654
 30
0.0
  0
LINE
  5
72
330
1F
100
AcDbEntity
  8
0
  6
Continuous
 62
     7
370
    15
100
AcDbLine
 10
7.8249142781
 20
1.5968566492
 30
0.0
 11
7.9841434253
 21
1.5968566492
 31
0.0
  0
LINE
  5
73
330
1F
100
AcDbEntity
  8
0
  6
Continuous
 62
     7
370
    15
100
AcDbLine
 10
7.6656851309
 20
1.5968566492
 30
0.0
 11
7.8249142781
 21
1.5968566492
 31
0.0
  0
SPLINE
  5
74
330
1F
100
AcDbEntity
  8
0
  6
Continuous
 62
     7
370
    15
100
AcDbSpline
210
0.0
220
0.0
230
1.0
 70
     8
 71
     3
 72
    22
 73
    18
 74
     0
 42
0.00000001
 43
0.00000001
 40
0.0
 40
0.0
 40
0.0
 40
0.0
 40
0.0624999999999999
 40
0.0624999999999999
 40
0.1249999999999998
 40
0.1249999999999998
 40
0.1874999999999996
 40
0.1874999999999996
 40
0.2499999999999995
 40
0.2499999999999995
 40
0.3749999999999996
 40
0.3749999999999996
 40
0.5000000000000001
 40
0.5000000000000001
 40
0.75
 40
0.75
 40
1.0
 40
1.0
 40
1.0
 40
1.0
 10
7.507371630005038
 20
1.721856649153664
 30
0.0
 10
7.507371630005038
 20
1.714030557854946
 30
0.0
 10
7.508102136341338
 20
1.706435436502597
 30
0.0
 10
7.51082154941091
 20
1.691806385055003
 30
0.0
 10
7.512755125282667
 20
1.685056283413594
 30
0.0
 10
7.517409903962411
 20
1.672594547355922
 30
0.0
 10
7.52006760889039
 20
1.667033879538159
 30
0.0
 10
7.525845512184636
 20
1.656850928923268
 30
0.0
 10
7.528989814884745
 20
1.652213714848366
 30
0.0
 10
7.538711992849056
 20
1.639727620685882
 30
0.0
 10
7.545630885350991
 20
1.633131429148898
 30
0.0
 10
7.559999594189925
 20
1.622036172358904
 30
0.0
 10
7.567398529986812
 20
1.617619979180476
 30
0.0
 10
7.589628802225471
 20
1.606829727193382
 30
0.0
 10
7.604688494877794
 20
1.602726005393957
 30
0.0
 10
7.635054946120673
 20
1.597705800659992
 30
0.0
 10
7.650385887539005
 20
1.596856649153657
 30
0.0
 10
7.665685130854101
 20
1.596856649153663
 30
0.0
  0
LINE
  5
75
330
1F
100
AcDbEntity
  8
0
  6
Continuous
 62
     7
370
    15
100
AcDbLine
 10
7.50737163
 20
3.1418566492
 30
0.0
 11
7.50737163
 21
1.7218566492
 31
0.0
  0
SPLINE
  5
76
330
1F
100
AcDbEntity
  8
0
  6
Continuous
 62
     7
370
    15
100
AcDbSpline
210
0.0
220
0.0
230
1.0
 70
     8
 71
     3
 72
    22
 73
    18
 74
     0
 42
0.00000001
 43
0.00000001
 40
0.0
 40
0.0
 40
0.0
 40
0.0
 40
0.2499999999999998
 40
0.2499999999999998
 40
0.3749999999999998
 40
0.3749999999999998
 40
0.4999999999999996
 40
0.4999999999999996
 40
0.625
 40
0.625
 40
0.7500000000000004
 40
0.7500000000000004
 40
0.875000000000001
 40
0.875000000000001
 40
0.9375000000000004
 40
0.9375000000000004
 40
1.0
 40
1.0
 40
1.0
 40
1.0
 10
7.665685130853933
 20
3.266856649153663
 30
0.0
 10
7.650382814907056
 20
3.266856649153663
 30
0.0
 10
7.635058941243842
 20
3.26601446271063
 30
0.0
 10
7.61215261297859
 20
3.262218088309795
 30
0.0
 10
7.60454332116471
 20
3.260528558966334
 30
0.0
 10
7.589396297574733
 20
3.255989062054361
 30
0.0
 10
7.581840040699696
 20
3.253131262264721
 30
0.0
 10
7.567009595733338
 20
3.245874794207136
 30
0.0
 10
7.559718573673171
 20
3.241484496714248
 30
0.0
 10
7.545502607850602
 20
3.23045773469491
 30
0.0
 10
7.538503835362187
 20
3.223762307706808
 30
0.0
 10
7.525592883946303
 20
3.207091718647781
 30
0.0
 10
7.519609499820508
 20
3.197054413626376
 30
0.0
 10
7.512740348092153
 20
3.178593587643995
 30
0.0
 10
7.510797087197316
 20
3.171780365201428
 30
0.0
 10
7.508120923976231
 20
3.157373872816843
 30
0.0
 10
7.507371630004996
 20
3.149643551718238
 30
0.0
 10
7.507371630004995
 20
3.141856649153671
 30
0.0
  0
LINE
  5
77
330
1F
100
AcDbEntity
  8
0
  6
Continuous
 62
     7
370
    15
100
AcDbLine
 10
7.6656851309
 20
3.2668566492
 30
0.0
 11
7.8249142781
 21
3.2668566492
 31
0.0
  0
LINE
  5
78
330
1F
100
AcDbEntity
  8
0
  6
Continuous
 62
     7
370
    15
100
AcDbLine
 10
7.8249142781
 20
3.2668566492
 30
0.0
 11
7.9841434253
 21
3.2668566492
 31
0.0
  0
LINE
  5
79
330
1F
100
AcDbEntity
  8
0
  6
Continuous
 62
     7
370
    15
100
AcDbLine
 10
8.1424569261
 20
3.1418566492
 30
0.0
 11
8.1424569261
 21
1.7218566492
 31
0.0
  0
SPLINE
  5
7A
330
1F
100
AcDbEntity
  8
0
  6
Continuous
 62
     7
370
    15
100
AcDbSpline
210
0.0
220
0.0
230
1.0
 70
     8
 71
     3
 72
    22
 73
    18
 74
     0
 42
0.00000001
 43
0.00000001
 40
0.0
 40
0.0
 40
0.0
 40
0.0
 40
0.2499999999999986
 40
0.2499999999999986
 40
0.3749999999999983
 40
0.3749999999999983
 40
0.4999999999999981
 40
0.4999999999999981
 40
0.6249999999999984
 40
0.6249999999999984
 40
0.7499999999999989
 40
0.7499999999999989
 40
0.8749999999999992
 40
0.8749999999999992
 40
0.9374999999999996
 40
0.9374999999999996
 40
1.0
 40
1.0
 40
1.0
 40
1.0
 10
9.889399313590502
 20
1.596856649153663
 30
0.0
 10
9.904701629537378
 20
1.596856649153663
 30
0.0
 10
9.920025503200591
 20
1.597698835596697
 30
0.0
 10
9.942931831465845
 20
1.601495209997531
 30
0.0
 10
9.950541123279724
 20
1.603184739340991
 30
0.0
 10
9.9656881468697
 20
1.607724236252965
 30
0.0
 10
9.973244403744738
 20
1.610582036042606
 30
0.0
 10
9.988074848711095
 20
1.617838504100189
 30
0.0
 10
9.995365870771261
 20
1.622228801593078
 30
0.0
 10
10.00958183659383
 20
1.633255563612417
 30
0.0
 10
10.01658060908225
 20
1.639950990600518
 30
0.0
 10
10.02949156049813
 20
1.656621579659545
 30
0.0
 10
10.03547494462392
 20
1.666658884680951
 30
0.0
 10
10.04234409635228
 20
1.685119710663331
 30
0.0
 10
10.04428735724712
 20
1.691932933105899
 30
0.0
 10
10.0469635204682
 20
1.706339425490483
 30
0.0
 10
10.04771281443944
 20
1.714069746589088
 30
0.0
 10
10.04771281443944
 20
1.721856649153654
 30
0.0
  0
LINE
  5
7B
330
1F
100
AcDbEntity
  8
0
  6
Continuous
 62
     7
370
    15
100
AcDbLine
 10
9.7301701664
 20
1.5968566492
 30
0.0
 11
9.8893993136
 21
1.5968566492
 31
0.0
  0
LINE
  5
7C
330
1F
100
AcDbEntity
  8
0
  6
Continuous
 62
     7
370
    15
100
AcDbLine
 10
9.5709410192
 20
1.5968566492
 30
0.0
 11
9.7301701664
 21
1.5968566492
 31
0.0
  0
SPLINE
  5
7D
330
1F
100
AcDbEntity
  8
0
  6
Continuous
 62
     7
370
    15
100
AcDbSpline
210
0.0
220
0.0
230
1.0
 70
     8
 71
     3
 72
    22
 73
    18
 74
     0
 42
0.00000001
 43
0.00000001
 40
0.0
 40
0.0
 40
0.0
 40
0.0
 40
0.0624999999999995
 40
0.0624999999999995
 40
0.1249999999999991
 40
0.1249999999999991
 40
0.1874999999999986
 40
0.1874999999999986
 40
0.2499999999999982
 40
0.2499999999999982
 40
0.3749999999999986
 40
0.3749999999999986
 40
0.499999999999999
 40
0.499999999999999
 40
0.7499999999999994
 40
0.7499999999999994
 40
1.0
 40
1.0
 40
1.0
 40
1.0
 10
9.412627518330803
 20
1.721856649153663
 30
0.0
 10
9.412627518330803
 20
1.714030557854954
 30
0.0
 10
9.4133580246671
 20
1.706435436502611
 30
0.0
 10
9.416077437736668
 20
1.691806385055028
 30
0.0
 10
9.418011013608423
 20
1.685056283413625
 30
0.0
 10
9.422665792288159
 20
1.67259454735596
 30
0.0
 10
9.425323497216134
 20
1.6670338795382
 30
0.0
 10
9.431101400510373
 20
1.656850928923313
 30
0.0
 10
9.434245703210477
 20
1.652213714848411
 30
0.0
 10
9.443967881174776
 20
1.639727620685929
 30
0.0
 10
9.450886773676702
 20
1.633131429148946
 30
0.0
 10
9.465255482515621
 20
1.62203617235895
 30
0.0
 10
9.4726544183125
 20
1.617619979180518
 30
0.0
 10
9.494884690551137
 20
1.606829727193416
 30
0.0
 10
9.509944383203445
 20
1.602726005393985
 30
0.0
 10
9.540310834446295
 20
1.597705800660007
 30
0.0
 10
9.555641775864613
 20
1.596856649153663
 30
0.0
 10
9.570941019179696
 20
1.596856649153663
 30
0.0
  0
LINE
  5
7E
330
1F
100
AcDbEntity
  8
0
  6
Continuous
 62
     7
370
    15
100
AcDbLine
 10
9.4126275183
 20
3.1418566492
 30
0.0
 11
9.4126275183
 21
1.7218566492
 31
0.0
  0
SPLINE
  5
7F
330
1F
100
AcDbEntity
  8
0
  6
Continuous
 62
     7
370
    15
100
AcDbSpline
210
0.0
220
0.0
230
1.0
 70
     8
 71
     3
 72
    22
 73
    18
 74
     0
 42
0.00000001
 43
0.00000001
 40
0.0
 40
0.0
 40
0.0
 40
0.0
 40
0.250000000000001
 40
0.250000000000001
 40
0.3750000000000008
 40
0.3750000000000008
 40
0.5000000000000006
 40
0.5000000000000006
 40
0.6250000000000002
 40
0.6250000000000002
 40
0.7500000000000001
 40
0.7500000000000001
 40
0.8749999999999999
 40
0.8749999999999999
 40
0.9375
 40
0.9375
 40
1.0
 40
1.0
 40
1.0
 40
1.0
 10
9.570941019179696
 20
3.266856649153663
 30
0.0
 10
9.555638703232818
 20
3.266856649153663
 30
0.0
 10
9.540314829569605
 20
3.26601446271063
 30
0.0
 10
9.517408501304352
 20
3.262218088309795
 30
0.0
 10
9.509799209490474
 20
3.260528558966334
 30
0.0
 10
9.494652185900495
 20
3.255989062054361
 30
0.0
 10
9.48709592902546
 20
3.253131262264721
 30
0.0
 10
9.4722654840591
 20
3.245874794207137
 30
0.0
 10
9.464974461998935
 20
3.241484496714248
 30
0.0
 10
9.450758496176366
 20
3.23045773469491
 30
0.0
 10
9.44375972368795
 20
3.223762307706809
 30
0.0
 10
9.430848772272066
 20
3.207091718647781
 30
0.0
 10
9.424865388146271
 20
3.197054413626375
 30
0.0
 10
9.417996236417917
 20
3.178593587643995
 30
0.0
 10
9.41605297552308
 20
3.171780365201428
 30
0.0
 10
9.413376812301994
 20
3.157373872816843
 30
0.0
 10
9.41262751833076
 20
3.149643551718238
 30
0.0
 10
9.41262751833076
 20
3.141856649153672
 30
0.0
  0
LINE
  5
80
330
1F
100
AcDbEntity
  8
0
  6
Continuous
 62
     7
370
    15
100
AcDbLine
 10
9.5709410192
 20
3.2668566492
 30
0.0
 11
9.7301701664
 21
3.2668566492
 31
0.0
  0
LINE
  5
81
330
1F
100
AcDbEntity
  8
0
  6
Continuous
 62
     7
370
    15
100
AcDbLine
 10
9.7301701664
 20
3.2668566492
 30
0.0
 11
9.8893993136
 21
3.2668566492
 31
0.0
  0
SPLINE
  5
82
330
1F
100
AcDbEntity
  8
0
  6
Continuous
 62
     7
370
    15
100
AcDbSpline
210
0.0
220
0.0
230
1.0
 70
     8
 71
     3
 72
    22
 73
    18
 74
     0
 42
0.00000001
 43
0.00000001
 40
0.0
 40
0.0
 40
0.0
 40
0.0
 40
0.0624999999999999
 40
0.0624999999999999
 40
0.1249999999999998
 40
0.1249999999999998
 40
0.1874999999999997
 40
0.1874999999999997
 40
0.2499999999999996
 40
0.2499999999999996
 40
0.3749999999999993
 40
0.3749999999999993
 40
0.4999999999999997
 40
0.4999999999999997
 40
0.7499999999999998
 40
0.7499999999999998
 40
1.0
 40
1.0
 40
1.0
 40
1.0
 10
10.04771281443939
 20
3.141856649153662
 30
0.0
 10
10.04771281443939
 20
3.149682740452372
 30
0.0
 10
10.04698230810309
 20
3.157277861804715
 30
0.0
 10
10.04426289503353
 20
3.171906913252298
 30
0.0
 10
10.04232931916177
 20
3.178657014893701
 30
0.0
 10
10.03767454048204
 20
3.191118750951365
 30
0.0
 10
10.03501683555406
 20
3.196679418769126
 30
0.0
 10
10.02923893225982
 20
3.206862369384014
 30
0.0
 10
10.02609462955972
 20
3.211499583458915
 30
0.0
 10
10.01637245159542
 20
3.223985677621397
 30
0.0
 10
10.00945355909349
 20
3.230581869158381
 30
0.0
 10
9.995084850254575
 20
3.241677125948377
 30
0.0
 10
9.987685914457694
 20
3.246093319126808
 30
0.0
 10
9.965455642219057
 20
3.25688357111391
 30
0.0
 10
9.950395949566749
 20
3.260987292913342
 30
0.0
 10
9.9200294983239
 20
3.26600749764732
 30
0.0
 10
9.904698556905583
 20
3.266856649153663
 30
0.0
 10
9.8893993135905
 20
3.266856649153663
 30
0.0
  0
LINE
  5
83
330
1F
100
AcDbEntity
  8
0
  6
Continuous
 62
     7
370
    15
100
AcDbLine
 10
10.0477128144
 20
3.1418566492
 30
0.0
 11
10.0477128144
 21
1.7218566492
 31
0.0
  0
LINE
  5
84
330
1F
100
AcDbEntity
  8
0
  6
Continuous
 62
     7
370
    15
100
AcDbLine
 10
9.0960005166
 20
1.5968566492
 30
0.0
 11
9.5709410192
 21
1.5968566492
 31
0.0
  0
SPLINE
  5
85
330
1F
100
AcDbEntity
  8
0
  6
Continuous
 62
     7
370
    15
100
AcDbSpline
210
0.0
220
0.0
230
1.0
 70
     8
 71
     3
 72
    24
 73
    20
 74
     0
 42
0.00000001
 43
0.00000001
 40
0.0
 40
0.0
 40
0.0
 40
0.0
 40
0.2499999999999997
 40
0.2499999999999997
 40
0.3749999999999998
 40
0.3749999999999998
 40
0.4999999999999999
 40
0.4999999999999999
 40
0.625
 40
0.625
 40
0.7500000000000001
 40
0.7500000000000001
 40
0.8124999999999999
 40
0.8124999999999999
 40
0.8749999999999997
 40
0.8749999999999997
 40
0.9374999999999999
 40
0.9374999999999999
 40
1.0
 40
1.0
 40
1.0
 40
1.0
 10
9.09600051663302
 20
1.596856649153663
 30
0.0
 10
9.12662361705516
 20
1.596856649153663
 30
0.0
 10
9.1571916053439
 20
1.597699221930662
 30
0.0
 10
9.202879150707876
 20
1.601477050152223
 30
0.0
 10
9.218080672795612
 20
1.60315919699914
 30
0.0
 10
9.248407172695856
 20
1.60769372524135
 30
0.0
 10
9.26353296841436
 20
1.610547561458343
 30
0.0
 10
9.293293713460772
 20
1.617820261865522
 30
0.0
 10
9.308014653155414
 20
1.622249044669589
 30
0.0
 10
9.336652813556682
 20
1.633378292593453
 30
0.0
 10
9.350377975847893
 20
1.63997468183552
 30
0.0
 10
9.369548995219066
 20
1.652330425194356
 30
0.0
 10
9.375700600487743
 20
1.656863740382039
 30
0.0
 10
9.387321681486402
 20
1.667115378926737
 30
0.0
 10
9.392682050460271
 20
1.672747963479432
 30
0.0
 10
9.401925816388472
 20
1.685166198231603
 30
0.0
 10
9.405797203918796
 20
1.69197502663984
 30
0.0
 10
9.41113836932196
 20
1.706378260881116
 30
0.0
 10
9.412627518330805
 20
1.714186964719959
 30
0.0
 10
9.412627518330805
 20
1.721856649153664
 30
0.0
  0
SPLINE
  5
86
330
1F
100
AcDbEntity
  8
0
  6
Continuous
 62
     7
370
    15
100
AcDbSpline
210
0.0
220
0.0
230
1.0
 70
     8
 71
     3
 72
    22
 73
    18
 74
     0
 42
0.00000001
 43
0.00000001
 40
0.0
 40
0.0
 40
0.0
 40
0.0
 40
0.0625000000000002
 40
0.0625000000000002
 40
0.1250000000000003
 40
0.1250000000000003
 40
0.1875000000000005
 40
0.1875000000000005
 40
0.2500000000000007
 40
0.2500000000000007
 40
0.3750000000000004
 40
0.3750000000000004
 40
0.5000000000000001
 40
0.5000000000000001
 40
0.7500000000000001
 40
0.7500000000000001
 40
1.0
 40
1.0
 40
1.0
 40
1.0
 10
8.142456926113628
 20
1.721856649153664
 30
0.0
 10
8.142456926113628
 20
1.714076646757653
 30
0.0
 10
8.14392918649872
 20
1.706406491406188
 30
0.0
 10
8.149342609478621
 20
1.691843151915476
 30
0.0
 10
8.153237735535184
 20
1.685040066089049
 30
0.0
 10
8.162499535906425
 20
1.67263770118305
 30
0.0
 10
8.167806456880946
 20
1.667074283969363
 30
0.0
 10
8.179389230153657
 20
1.656861549711194
 30
0.0
 10
8.185666161476236
 20
1.65223401872516
 30
0.0
 10
8.205050776735561
 20
1.639777679073681
 30
0.0
 10
8.218912245555142
 20
1.633156751248888
 30
0.0
 10
8.247745793466244
 20
1.622022531355025
 30
0.0
 10
8.262389125548864
 20
1.617655251393279
 30
0.0
 10
8.30675662522492
 20
1.606870387458356
 30
0.0
 10
8.336913394027404
 20
1.602743817755804
 30
0.0
 10
8.397833280947813
 20
1.597701845831523
 30
0.0
 10
8.428501557439995
 20
1.596856649153663
 30
0.0
 10
8.459083927811413
 20
1.596856649153663
 30
0.0
  0
LINE
  5
87
330
1F
100
AcDbEntity
  8
0
  6
Continuous
 62
     7
370
    15
100
AcDbLine
 10
7.9841434253
 20
1.5968566492
 30
0.0
 11
8.4590839278
 21
1.5968566492
 31
0.0
  0
SPLINE
  5
88
330
1F
100
AcDbEntity
  8
0
  6
Continuous
 62
     7
370
    15
100
AcDbSpline
210
0.0
220
0.0
230
1.0
 70
     8
 71
     3
 72
    22
 73
    18
 74
     0
 42
0.00000001
 43
0.00000001
 40
0.0
 40
0.0
 40
0.0
 40
0.0
 40
0.0624999999999996
 40
0.0624999999999996
 40
0.1249999999999993
 40
0.1249999999999993
 40
0.1874999999999989
 40
0.1874999999999989
 40
0.2499999999999986
 40
0.2499999999999986
 40
0.3749999999999989
 40
0.3749999999999989
 40
0.4999999999999992
 40
0.4999999999999992
 40
0.7499999999999997
 40
0.7499999999999997
 40
1.0
 40
1.0
 40
1.0
 40
1.0
 10
9.412627518330805
 20
3.141856649153662
 30
0.0
 10
9.412627518330805
 20
3.149636651549677
 30
0.0
 10
9.411155257945712
 20
3.157306806901136
 30
0.0
 10
9.405741834965811
 20
3.171870146391853
 30
0.0
 10
9.401846708909249
 20
3.178673232218278
 30
0.0
 10
9.392584908538005
 20
3.191075597124279
 30
0.0
 10
9.387277987563484
 20
3.196639014337965
 30
0.0
 10
9.375695214290772
 20
3.206851748596133
 30
0.0
 10
9.369418282968194
 20
3.211479279582168
 30
0.0
 10
9.350033667708866
 20
3.223935619233647
 30
0.0
 10
9.336172198889296
 20
3.230556547058436
 30
0.0
 10
9.307338650978185
 20
3.241690766952303
 30
0.0
 10
9.29269531889556
 20
3.246058046914049
 30
0.0
 10
9.2483278192195
 20
3.256842910848972
 30
0.0
 10
9.21817105041702
 20
3.260969480551523
 30
0.0
 10
9.157251163496625
 20
3.266011452475803
 30
0.0
 10
9.12658288700444
 20
3.266856649153663
 30
0.0
 10
9.096000516633021
 20
3.266856649153663
 30
0.0
  0
LINE
  5
89
330
1F
100
AcDbEntity
  8
0
  6
Continuous
 62
     7
370
    15
100
AcDbLine
 10
9.0960005166
 20
3.2668566492
 30
0.0
 11
9.5709410192
 21
3.2668566492
 31
0.0
  0
LINE
  5
8A
330
1F
100
AcDbEntity
  8
0
  6
Continuous
 62
     7
370
    15
100
AcDbLine
 10
8.7775422222
 20
4.4368566492
 30
0.0
 11
9.8775422222
 21
4.4368566492
 31
0.0
  0
LINE
  5
8B
330
1F
100
AcDbEntity
  8
0
  6
Continuous
 62
     7
370
    15
100
AcDbLine
 10
7.6775422222
 20
4.4368566492
 30
0.0
 11
8.7775422222
 21
4.4368566492
 31
0.0
  0
CIRCLE
  5
8C
330
1F
100
AcDbEntity
  8
0
  6
Continuous
 62
     7
370
    15
100
AcDbCircle
 10
8.7775422222
 20
2.4318566492
 30
0.0
 40
0.4944350000000011
  0
LINE
  5
8D
330
1F
100
AcDbEntity
  8
0
  6
Continuous
 62
     7
370
    15
100
AcDbLine
 10
8.7775422222
 20
3.2668566492
 30
0.0
 11
9.0960005166
 21
3.2668566492
 31
0.0
  0
LINE
  5
8E
330
1F
100
AcDbEntity
  8
0
  6
Continuous
 62
     7
370
    15
100
AcDbLine
 10
8.4590839278
 20
3.2668566492
 30
0.0
 11
8.7775422222
 21
3.2668566492
 31
0.0
  0
LINE
  5
8F
330
1F
100
AcDbEntity
  8
0
  6
Continuous
 62
     7
370
    15
100
AcDbLine
 10
8.7775422222
 20
1.5968566492
 30
0.0
 11
9.0960005166
 21
1.5968566492
 31
0.0
  0
LINE
  5
90
330
1F
100
AcDbEntity
  8
0
  6
Continuous
 62
     7
370
    15
100
AcDbLine
 10
8.4590839278
 20
1.5968566492
 30
0.0
 11
8.7775422222
 21
1.5968566492
 31
0.0
  0
LINE
  5
91
330
1F
100
AcDbEntity
  8
0
  6
Continuous
 62
     7
370
    15
100
AcDbLine
 10
9.8775422222
 20
0.2468566492
 30
0.0
 11
7.6775422222
 21
0.2468566492
 31
0.0
  0
LINE
  5
92
330
1F
100
AcDbEntity
  8
0
  6
Continuous
 62
     7
370
    15
100
AcDbLine
 10
9.7275422222
 20
0.0968566492
 30
0.0
 11
7.8275422222
 21
0.0968566492
 31
0.0
  0
LINE
  5
93
330
1F
100
AcDbEntity
  8
0
  6
Continuous
 62
     7
370
    15
100
AcDbLine
 10
8.7775422222
 20
4.5168566492
 30
0.0
 11
9.7975422222
 21
4.5168566492
 31
0.0
  0
LINE
  5
94
330
1F
100
AcDbEntity
  8
0
  6
Continuous
 62
     7
370
    15
100
AcDbLine
 10
7.7575422222
 20
4.5168566492
 30
0.0
 11
8.7775422222
 21
4.5168566492
 31
0.0
  0
CIRCLE
  5
95
330
1F
100
AcDbEntity
  8
0
  6
Continuous
 62
     7
370
    15
100
AcDbCircle
 10
8.7775422222
 20
2.4318566492
 30
0.0
 40
0.4778682474475726
  0
SPLINE
  5
96
330
1F
100
AcDbEntity
  8
0
  6
Continuous
 62
     7
370
    15
100
AcDbSpline
210
0.0
220
0.0
230
1.0
 70
     8
 71
     3
 72
    20
 73
    16
 74
     0
 42
0.00000001
 43
0.00000001
 40
0.0
 40
0.0
 40
0.0
 40
0.0
 40
0.2500000000000008
 40
0.2500000000000008
 40
0.5000000000000016
 40
0.5000000000000016
 40
0.6250000000000012
 40
0.6250000000000012
 40
0.750000000000001
 40
0.750000000000001
 40
0.8750000000000007
 40
0.8750000000000007
 40
0.9375000000000003
 40
0.9375000000000003
 40
1.0
 40
1.0
 40
1.0
 40
1.0
 10
8.516819452381739
 20
7.891856649153663
 30
0.0
 10
8.485385002838864
 20
7.891856649153662
 30
0.0
 10
8.454039498994566
 20
7.891155054333653
 30
0.0
 10
8.391746618806986
 20
7.886611474580651
 30
0.0
 10
8.36079108127948
 20
7.882833864256735
 30
0.0
 10
8.314943940868787
 20
7.872543830630378
 30
0.0
 10
8.299760082347673
 20
7.868336690719512
 30
0.0
 10
8.269706686025765
 20
7.857443080331837
 30
0.0
 10
8.254985869404535
 20
7.85081482182002
 30
0.0
 10
8.22757071706413
 20
7.833998380674709
 30
0.0
 10
8.215016877900286
 20
7.824013455697608
 30
0.0
 10
8.200133391149851
 20
7.804826264253005
 30
0.0
 10
8.196033973885289
 20
7.797934765931267
 30
0.0
 10
8.190201477626493
 20
7.782790398542276
 30
0.0
 10
8.188644947648795
 20
7.774952981069656
 30
0.0
 10
8.188644947648795
 20
7.766856649153663
 30
0.0
  0
SPLINE
  5
97
330
1F
100
AcDbEntity
  8
0
  6
Continuous
 62
     7
370
    15
100
AcDbSpline
210
0.0
220
0.0
230
1.0
 70
     8
 71
     3
 72
    22
 73
    18
 74
     0
 42
0.00000001
 43
0.00000001
 40
0.0
 40
0.0
 40
0.0
 40
0.0
 40
0.0625000000000001
 40
0.0625000000000001
 40
0.1250000000000002
 40
0.1250000000000002
 40
0.1875000000000003
 40
0.1875000000000003
 40
0.2500000000000004
 40
0.2500000000000004
 40
0.3750000000000007
 40
0.3750000000000007
 40
0.5000000000000009
 40
0.5000000000000009
 40
0.7500000000000004
 40
0.7500000000000004
 40
1.0
 40
1.0
 40
1.0
 40
1.0
 10
8.188644947648797
 20
7.766856649153663
 30
0.0
 10
8.188644947648797
 20
7.7749271615047
 30
0.0
 10
8.187864497590203
 20
7.782772619445287
 30
0.0
 10
8.184985892700041
 20
7.797779420386643
 30
0.0
 10
8.182934688598415
 20
7.804707816985169
 30
0.0
 10
8.178044447234608
 20
7.817377319638031
 30
0.0
 10
8.175256601524403
 20
7.82301620473905
 30
0.0
 10
8.169200041639149
 20
7.833317623359149
 30
0.0
 10
8.165915408330081
 20
7.837979879456945
 30
0.0
 10
8.155792052611288
 20
7.850474910732661
 30
0.0
 10
8.148594573317569
 20
7.857030542831747
 30
0.0
 10
8.133654472974769
 20
7.867985439954175
 30
0.0
 10
8.126025904132918
 20
7.872267302647932
 30
0.0
 10
8.103045366465578
 20
7.8826944382895
 30
0.0
 10
8.087484650434005
 20
7.886534449193627
 30
0.0
 10
8.056126384929588
 20
7.891148677971208
 30
0.0
 10
8.040317012186778
 20
7.891856649153662
 30
0.0
 10
8.024557695282326
 20
7.891856649153663
 30
0.0
  0
LINE
  5
98
330
1F
100
AcDbEntity
  8
0
  6
Continuous
 62
     7
370
    15
100
AcDbLine
 10
8.0245576953
 20
7.8918566492
 30
0.0
 11
8.5168194524
 21
7.8918566492
 31
0.0
  0
SPLINE
  5
99
330
1F
100
AcDbEntity
  8
0
  6
Continuous
 62
     7
370
    15
100
AcDbSpline
210
0.0
220
0.0
230
1.0
 70
     8
 71
     3
 72
    22
 73
    18
 74
     0
 42
0.00000001
 43
0.00000001
 40
0.0
 40
0.0
 40
0.0
 40
0.0
 40
0.2500000000000009
 40
0.2500000000000009
 40
0.5000000000000018
 40
0.5000000000000018
 40
0.6250000000000022
 40
0.6250000000000022
 40
0.7500000000000027
 40
0.7500000000000027
 40
0.812500000000002
 40
0.812500000000002
 40
0.8750000000000013
 40
0.8750000000000013
 40
0.9375000000000007
 40
0.9375000000000007
 40
1.0
 40
1.0
 40
1.0
 40
1.0
 10
8.024557695282326
 20
6.891856649153663
 30
0.0
 10
8.04014457746
 20
6.891856649153663
 30
0.0
 10
8.05572353105131
 20
6.892541998382047
 30
0.0
 10
8.086845151843141
 20
6.897049302632777
 30
0.0
 10
8.102388744481914
 20
6.900791262513081
 30
0.0
 10
8.125648177859762
 20
6.911241018385248
 30
0.0
 10
8.1333785053467
 20
6.915556045805765
 30
0.0
 10
8.148366801323448
 20
6.926486209295629
 30
0.0
 10
8.155682727213016
 20
6.933133852401966
 30
0.0
 10
8.16577962199823
 20
6.945551046000732
 30
0.0
 10
8.16901104827274
 20
6.950110096849081
 30
0.0
 10
8.175100300751804
 20
6.960397354255632
 30
0.0
 10
8.177969592029255
 20
6.966171528212124
 30
0.0
 10
8.182877409336534
 20
6.978828386156007
 30
0.0
 10
8.184965595832363
 20
6.985873891812365
 30
0.0
 10
8.187832236708953
 20
7.000727504808022
 30
0.0
 10
8.188644947648802
 20
7.008736980577538
 30
0.0
 10
8.188644947648802
 20
7.016856649153665
 30
0.0
  0
LINE
  5
9A
330
1F
100
AcDbEntity
  8
0
  6
Continuous
 62
     7
370
    15
100
AcDbLine
 10
7.8941963104
 20
6.8918566492
 30
0.0
 11
8.0245576953
 21
6.8918566492
 31
0.0
  0
LINE
  5
9B
330
1F
100
AcDbEntity
  8
0
  6
Continuous
 62
     7
370
    15
100
AcDbLine
 10
7.7638349254
 20
6.8918566492
 30
0.0
 11
7.8941963104
 21
6.8918566492
 31
0.0
  0
SPLINE
  5
9C
330
1F
100
AcDbEntity
  8
0
  6
Continuous
 62
     7
370
    15
100
AcDbSpline
210
0.0
220
0.0
230
1.0
 70
     8
 71
     3
 72
    22
 73
    18
 74
     0
 42
0.00000001
 43
0.00000001
 40
0.0
 40
0.0
 40
0.0
 40
0.0
 40
0.0625
 40
0.0625
 40
0.1250000000000001
 40
0.1250000000000001
 40
0.1875000000000001
 40
0.1875000000000001
 40
0.2500000000000001
 40
0.2500000000000001
 40
0.3750000000000001
 40
0.3750000000000001
 40
0.5000000000000001
 40
0.5000000000000001
 40
0.7500000000000001
 40
0.7500000000000001
 40
1.0
 40
1.0
 40
1.0
 40
1.0
 10
7.599747673075378
 20
7.016856649153665
 30
0.0
 10
7.599747673075378
 20
7.008786136802627
 30
0.0
 10
7.600528123133974
 20
7.000940678862043
 30
0.0
 10
7.603406728024134
 20
6.985933877920685
 30
0.0
 10
7.605457932125761
 20
6.979005481322159
 30
0.0
 10
7.610348173489567
 20
6.966335978669298
 30
0.0
 10
7.613136019199772
 20
6.960697093568278
 30
0.0
 10
7.619192579085027
 20
6.950395674948178
 30
0.0
 10
7.622477212394093
 20
6.945733418850382
 30
0.0
 10
7.632600568112887
 20
6.933238387574664
 30
0.0
 10
7.639798047406607
 20
6.926682755475579
 30
0.0
 10
7.654738147749406
 20
6.915727858353152
 30
0.0
 10
7.662366716591257
 20
6.911445995659398
 30
0.0
 10
7.685347254258597
 20
6.901018860017827
 30
0.0
 10
7.70090797029017
 20
6.897178849113699
 30
0.0
 10
7.732266235794587
 20
6.892564620336119
 30
0.0
 10
7.748075608537397
 20
6.891856649153663
 30
0.0
 10
7.76383492544185
 20
6.891856649153663
 30
0.0
  0
LINE
  5
9D
330
1F
100
AcDbEntity
  8
0
  6
Continuous
 62
     7
370
    15
100
AcDbLine
 10
7.5997476731
 20
7.7668566492
 30
0.0
 11
7.5997476731
 21
7.0168566492
 31
0.0
  0
SPLINE
  5
9E
330
1F
100
AcDbEntity
  8
0
  6
Continuous
 62
     7
370
    15
100
AcDbSpline
210
0.0
220
0.0
230
1.0
 70
     8
 71
     3
 72
    22
 73
    18
 74
     0
 42
0.00000001
 43
0.00000001
 40
0.0
 40
0.0
 40
0.0
 40
0.0
 40
0.2499999999999978
 40
0.2499999999999978
 40
0.4999999999999957
 40
0.4999999999999957
 40
0.6249999999999948
 40
0.6249999999999948
 40
0.7499999999999938
 40
0.7499999999999938
 40
0.8124999999999954
 40
0.8124999999999954
 40
0.874999999999997
 40
0.874999999999997
 40
0.9374999999999986
 40
0.9374999999999986
 40
1.0
 40
1.0
 40
1.0
 40
1.0
 10
7.76383492544185
 20
7.891856649153663
 30
0.0
 10
7.748248043264176
 20
7.891856649153661
 30
0.0
 10
7.732669089672867
 20
7.891171299925281
 30
0.0
 10
7.701547468881036
 20
7.886663995674548
 30
0.0
 10
7.686003876242261
 20
7.882922035794247
 30
0.0
 10
7.662744442864416
 20
7.872472279922079
 30
0.0
 10
7.655014115377477
 20
7.86815725250156
 30
0.0
 10
7.640025819400729
 20
7.8572270890117
 30
0.0
 10
7.632709893511159
 20
7.850579445905359
 30
0.0
 10
7.622612998725947
 20
7.838162252306595
 30
0.0
 10
7.619381572451436
 20
7.833603201458246
 30
0.0
 10
7.613292319972371
 20
7.823315944051696
 30
0.0
 10
7.610423028694923
 20
7.817541770095206
 30
0.0
 10
7.605515211387642
 20
7.804884912151323
 30
0.0
 10
7.603427024891813
 20
7.797839406494964
 30
0.0
 10
7.600560384015222
 20
7.782985793499305
 30
0.0
 10
7.599747673075373
 20
7.77497631772979
 30
0.0
 10
7.599747673075373
 20
7.766856649153664
 30
0.0
  0
LINE
  5
9F
330
1F
100
AcDbEntity
  8
0
  6
Continuous
 62
     7
370
    15
100
AcDbLine
 10
7.7638349254
 20
7.8918566492
 30
0.0
 11
8.0245576953
 21
7.8918566492
 31
0.0
  0
LINE
  5
A0
330
1F
100
AcDbEntity
  8
0
  6
Continuous
 62
     7
370
    15
100
AcDbLine
 10
8.1886449476
 20
7.7668566492
 30
0.0
 11
8.1886449476
 21
7.0168566492
 31
0.0
  0
SPLINE
  5
A1
330
1F
100
AcDbEntity
  8
0
  6
Continuous
 62
     7
370
    15
100
AcDbSpline
210
0.0
220
0.0
230
1.0
 70
     8
 71
     3
 72
    22
 73
    18
 74
     0
 42
0.00000001
 43
0.00000001
 40
0.0
 40
0.0
 40
0.0
 40
0.0
 40
0.2500000000000022
 40
0.2500000000000022
 40
0.5000000000000043
 40
0.5000000000000043
 40
0.6250000000000047
 40
0.6250000000000047
 40
0.7500000000000049
 40
0.7500000000000049
 40
0.8125000000000037
 40
0.8125000000000037
 40
0.8750000000000024
 40
0.8750000000000024
 40
0.9375000000000012
 40
0.9375000000000012
 40
1.0
 40
1.0
 40
1.0
 40
1.0
 10
9.79124951900258
 20
6.891856649153663
 30
0.0
 10
9.806836401180256
 20
6.891856649153663
 30
0.0
 10
9.822415354771564
 20
6.892541998382048
 30
0.0
 10
9.853536975563395
 20
6.897049302632777
 30
0.0
 10
9.86908056820217
 20
6.900791262513081
 30
0.0
 10
9.892340001580017
 20
6.911241018385248
 30
0.0
 10
9.900070329066956
 20
6.915556045805767
 30
0.0
 10
9.915058625043704
 20
6.926486209295629
 30
0.0
 10
9.922374550933272
 20
6.933133852401968
 30
0.0
 10
9.932471445718484
 20
6.945551046000734
 30
0.0
 10
9.935702871992996
 20
6.950110096849083
 30
0.0
 10
9.94179212447206
 20
6.960397354255632
 30
0.0
 10
9.94466141574951
 20
6.966171528212125
 30
0.0
 10
9.949569233056788
 20
6.978828386156009
 30
0.0
 10
9.95165741955262
 20
6.985873891812367
 30
0.0
 10
9.954524060429208
 20
7.000727504808024
 30
0.0
 10
9.955336771369057
 20
7.008736980577539
 30
0.0
 10
9.955336771369057
 20
7.016856649153665
 30
0.0
  0
LINE
  5
A2
330
1F
100
AcDbEntity
  8
0
  6
Continuous
 62
     7
370
    15
100
AcDbLine
 10
9.6608881341
 20
6.8918566492
 30
0.0
 11
9.791249519
 21
6.8918566492
 31
0.0
  0
LINE
  5
A3
330
1F
100
AcDbEntity
  8
0
  6
Continuous
 62
     7
370
    15
100
AcDbLine
 10
9.5305267492
 20
6.8918566492
 30
0.0
 11
9.6608881341
 21
6.8918566492
 31
0.0
  0
SPLINE
  5
A4
330
1F
100
AcDbEntity
  8
0
  6
Continuous
 62
     7
370
    15
100
AcDbSpline
210
0.0
220
0.0
230
1.0
 70
     8
 71
     3
 72
    22
 73
    18
 74
     0
 42
0.00000001
 43
0.00000001
 40
0.0
 40
0.0
 40
0.0
 40
0.0
 40
0.0625000000000011
 40
0.0625000000000011
 40
0.1250000000000022
 40
0.1250000000000022
 40
0.1875000000000034
 40
0.1875000000000034
 40
0.2500000000000045
 40
0.2500000000000045
 40
0.3750000000000039
 40
0.3750000000000039
 40
0.5000000000000033
 40
0.5000000000000033
 40
0.7500000000000017
 40
0.7500000000000017
 40
1.0
 40
1.0
 40
1.0
 40
1.0
 10
9.366439496795632
 20
7.016856649153665
 30
0.0
 10
9.366439496795632
 20
7.008786136802629
 30
0.0
 10
9.367219946854227
 20
7.000940678862046
 30
0.0
 10
9.370098551744388
 20
6.985933877920691
 30
0.0
 10
9.372149755846014
 20
6.979005481322166
 30
0.0
 10
9.377039997209819
 20
6.966335978669306
 30
0.0
 10
9.379827842920022
 20
6.96069709356829
 30
0.0
 10
9.385884402805273
 20
6.950395674948187
 30
0.0
 10
9.38916903611434
 20
6.945733418850397
 30
0.0
 10
9.399292391833129
 20
6.933238387574677
 30
0.0
 10
9.406489871126848
 20
6.926682755475592
 30
0.0
 10
9.421429971469642
 20
6.915727858353163
 30
0.0
 10
9.429058540311493
 20
6.911445995659406
 30
0.0
 10
9.452039077978826
 20
6.901018860017836
 30
0.0
 10
9.467599794010395
 20
6.897178849113706
 30
0.0
 10
9.498958059514804
 20
6.892564620336122
 30
0.0
 10
9.51476743225761
 20
6.891856649153663
 30
0.0
 10
9.530526749162059
 20
6.891856649153663
 30
0.0
  0
LINE
  5
A5
330
1F
100
AcDbEntity
  8
0
  6
Continuous
 62
     7
370
    15
100
AcDbLine
 10
9.3664394968
 20
7.7668566492
 30
0.0
 11
9.3664394968
 21
7.0168566492
 31
0.0
  0
SPLINE
  5
A6
330
1F
100
AcDbEntity
  8
0
  6
Continuous
 62
     7
370
    15
100
AcDbSpline
210
0.0
220
0.0
230
1.0
 70
     8
 71
     3
 72
    22
 73
    18
 74
     0
 42
0.00000001
 43
0.00000001
 40
0.0
 40
0.0
 40
0.0
 40
0.0
 40
0.2499999999999987
 40
0.2499999999999987
 40
0.4999999999999973
 40
0.4999999999999973
 40
0.624999999999996
 40
0.624999999999996
 40
0.7499999999999947
 40
0.7499999999999947
 40
0.812499999999996
 40
0.812499999999996
 40
0.8749999999999973
 40
0.8749999999999973
 40
0.9374999999999987
 40
0.9374999999999987
 40
1.0
 40
1.0
 40
1.0
 40
1.0
 10
9.530526749162105
 20
7.891856649153663
 30
0.0
 10
9.514939866984431
 20
7.891856649153662
 30
0.0
 10
9.49936091339312
 20
7.891171299925281
 30
0.0
 10
9.46823929260129
 20
7.886663995674547
 30
0.0
 10
9.452695699962515
 20
7.882922035794246
 30
0.0
 10
9.42943626658467
 20
7.872472279922082
 30
0.0
 10
9.421705939097732
 20
7.86815725250156
 30
0.0
 10
9.406717643120983
 20
7.857227089011699
 30
0.0
 10
9.399401717231415
 20
7.850579445905359
 30
0.0
 10
9.389304822446203
 20
7.838162252306596
 30
0.0
 10
9.38607339617169
 20
7.833603201458247
 30
0.0
 10
9.379984143692624
 20
7.823315944051697
 30
0.0
 10
9.377114852415177
 20
7.817541770095207
 30
0.0
 10
9.372207035107897
 20
7.80488491215132
 30
0.0
 10
9.370118848612067
 20
7.797839406494964
 30
0.0
 10
9.367252207735477
 20
7.782985793499305
 30
0.0
 10
9.366439496795627
 20
7.774976317729791
 30
0.0
 10
9.366439496795627
 20
7.766856649153664
 30
0.0
  0
LINE
  5
A7
330
1F
100
AcDbEntity
  8
0
  6
Continuous
 62
     7
370
    15
100
AcDbLine
 10
9.5305267492
 20
7.8918566492
 30
0.0
 11
9.791249519
 21
7.8918566492
 31
0.0
  0
SPLINE
  5
A8
330
1F
100
AcDbEntity
  8
0
  6
Continuous
 62
     7
370
    15
100
AcDbSpline
210
0.0
220
0.0
230
1.0
 70
     8
 71
     3
 72
    22
 73
    18
 74
     0
 42
0.00000001
 43
0.00000001
 40
0.0
 40
0.0
 40
0.0
 40
0.0
 40
0.0624999999999999
 40
0.0624999999999999
 40
0.1249999999999999
 40
0.1249999999999999
 40
0.1874999999999998
 40
0.1874999999999998
 40
0.2499999999999998
 40
0.2499999999999998
 40
0.3749999999999997
 40
0.3749999999999997
 40
0.4999999999999998
 40
0.4999999999999998
 40
0.7499999999999999
 40
0.7499999999999999
 40
1.0
 40
1.0
 40
1.0
 40
1.0
 10
9.955336771369053
 20
7.766856649153663
 30
0.0
 10
9.955336771369053
 20
7.774927161504701
 30
0.0
 10
9.954556321310458
 20
7.782772619445287
 30
0.0
 10
9.951677716420296
 20
7.797779420386644
 30
0.0
 10
9.94962651231867
 20
7.804707816985171
 30
0.0
 10
9.944736270954863
 20
7.817377319638033
 30
0.0
 10
9.941948425244657
 20
7.823016204739049
 30
0.0
 10
9.935891865359403
 20
7.833317623359152
 30
0.0
 10
9.932607232050337
 20
7.837979879456944
 30
0.0
 10
9.922483876331544
 20
7.850474910732661
 30
0.0
 10
9.915286397037823
 20
7.857030542831745
 30
0.0
 10
9.900346296695023
 20
7.867985439954176
 30
0.0
 10
9.892717727853174
 20
7.872267302647932
 30
0.0
 10
9.869737190185834
 20
7.882694438289503
 30
0.0
 10
9.85417647415426
 20
7.886534449193628
 30
0.0
 10
9.822818208649844
 20
7.89114867797121
 30
0.0
 10
9.807008835907034
 20
7.891856649153665
 30
0.0
 10
9.79124951900258
 20
7.891856649153663
 30
0.0
  0
LINE
  5
A9
330
1F
100
AcDbEntity
  8
0
  6
Continuous
 62
     7
370
    15
100
AcDbLine
 10
9.9553367714
 20
7.7668566492
 30
0.0
 11
9.9553367714
 21
7.0168566492
 31
0.0
  0
SPLINE
  5
AA
330
1F
100
AcDbEntity
  8
0
  6
Continuous
 62
     7
370
    15
100
AcDbSpline
210
0.0
220
0.0
230
1.0
 70
     8
 71
     3
 72
    20
 73
    16
 74
     0
 42
0.00000001
 43
0.00000001
 40
0.0
 40
0.0
 40
0.0
 40
0.0
 40
0.2499999999999994
 40
0.2499999999999994
 40
0.4999999999999988
 40
0.4999999999999988
 40
0.6249999999999982
 40
0.6249999999999982
 40
0.7499999999999978
 40
0.7499999999999978
 40
0.8749999999999972
 40
0.8749999999999972
 40
0.9374999999999986
 40
0.9374999999999986
 40
1.0
 40
1.0
 40
1.0
 40
1.0
 10
9.038264992062691
 20
6.891856649153663
 30
0.0
 10
9.069699441605568
 20
6.891856649153663
 30
0.0
 10
9.101044945449864
 20
6.892558243973673
 30
0.0
 10
9.163337825637445
 20
6.897101823726673
 30
0.0
 10
9.194293363164952
 20
6.900879434050593
 30
0.0
 10
9.240140503575645
 20
6.911169467676948
 30
0.0
 10
9.25532436209676
 20
6.915376607587814
 30
0.0
 10
9.285377758418667
 20
6.926270217975491
 30
0.0
 10
9.300098575039895
 20
6.932898476487308
 30
0.0
 10
9.327513727380301
 20
6.949714917632615
 30
0.0
 10
9.340067566544144
 20
6.959699842609717
 30
0.0
 10
9.35495105329458
 20
6.978887034054325
 30
0.0
 10
9.359050470559142
 20
6.98577853237606
 30
0.0
 10
9.36488296681794
 20
7.000922899765055
 30
0.0
 10
9.366439496795635
 20
7.008760317237671
 30
0.0
 10
9.366439496795635
 20
7.016856649153665
 30
0.0
  0
LINE
  5
AB
330
1F
100
AcDbEntity
  8
0
  6
Continuous
 62
     7
370
    15
100
AcDbLine
 10
9.0382649921
 20
6.8918566492
 30
0.0
 11
9.5305267492
 21
6.8918566492
 31
0.0
  0
SPLINE
  5
AC
330
1F
100
AcDbEntity
  8
0
  6
Continuous
 62
     7
370
    15
100
AcDbSpline
210
0.0
220
0.0
230
1.0
 70
     8
 71
     3
 72
    24
 73
    20
 74
     0
 42
0.00000001
 43
0.00000001
 40
0.0
 40
0.0
 40
0.0
 40
0.0
 40
0.0312500000000032
 40
0.0312500000000032
 40
0.0625000000000063
 40
0.0625000000000063
 40
0.1250000000000046
 40
0.1250000000000046
 40
0.1875000000000028
 40
0.1875000000000028
 40
0.2500000000000011
 40
0.2500000000000011
 40
0.3750000000000015
 40
0.3750000000000015
 40
0.500000000000002
 40
0.500000000000002
 40
0.750000000000001
 40
0.750000000000001
 40
1.0
 40
1.0
 40
1.0
 40
1.0
 10
9.366439496795646
 20
7.766856649153662
 30
0.0
 10
9.366439496795646
 20
7.770863980884902
 30
0.0
 10
9.366043776133166
 20
7.774918959908907
 30
0.0
 10
9.364529416444729
 20
7.782767231814607
 30
0.0
 10
9.363413987396264
 20
7.786604465531674
 30
0.0
 10
9.359073638304302
 20
7.797875032286377
 30
0.0
 10
9.354972474729133
 20
7.804778502492177
 30
0.0
 10
9.345189682517994
 20
7.817430004659008
 30
0.0
 10
9.339498763256701
 20
7.823172293105321
 30
0.0
 10
9.32738047478815
 20
7.833444480568096
 30
0.0
 10
9.320887734491475
 20
7.838046827626355
 30
0.0
 10
9.300426956016874
 20
7.850644363255764
 30
0.0
 10
9.285955109426999
 20
7.85718945693053
 30
0.0
 10
9.256218984005026
 20
7.868054621717118
 30
0.0
 10
9.240811537867224
 20
7.872375387100436
 30
0.0
 10
9.194390408871724
 20
7.882846937225977
 30
0.0
 10
9.163271029290247
 20
7.886620505168459
 30
0.0
 10
9.100871213372708
 20
7.891163551583111
 30
0.0
 10
9.069586682065356
 20
7.891856649153663
 30
0.0
 10
9.038264992062691
 20
7.891856649153663
 30
0.0
  0
LINE
  5
AD
330
1F
100
AcDbEntity
  8
0
  6
Continuous
 62
     7
370
    15
100
AcDbLine
 10
9.0382649921
 20
7.8918566492
 30
0.0
 11
9.5305267492
 21
7.8918566492
 31
0.0
  0
SPLINE
  5
AE
330
1F
100
AcDbEntity
  8
0
  6
Continuous
 62
     7
370
    15
100
AcDbSpline
210
0.0
220
0.0
230
1.0
 70
     8
 71
     3
 72
    24
 73
    20
 74
     0
 42
0.00000001
 43
0.00000001
 40
0.0
 40
0.0
 40
0.0
 40
0.0
 40
0.0312500000000016
 40
0.0312500000000016
 40
0.0625000000000032
 40
0.0625000000000032
 40
0.1250000000000021
 40
0.1250000000000021
 40
0.1875000000000011
 40
0.1875000000000011
 40
0.2500000000000002
 40
0.2500000000000002
 40
0.3749999999999999
 40
0.3749999999999999
 40
0.4999999999999997
 40
0.4999999999999997
 40
0.7499999999999998
 40
0.7499999999999998
 40
1.0
 40
1.0
 40
1.0
 40
1.0
 10
8.188644947648786
 20
7.016856649153666
 30
0.0
 10
8.188644947648786
 20
7.012849317422426
 30
0.0
 10
8.189040668311264
 20
7.008794338398419
 30
0.0
 10
8.190555027999702
 20
7.000946066492717
 30
0.0
 10
8.191670457048168
 20
6.997108832775652
 30
0.0
 10
8.196010806140126
 20
6.985838266020955
 30
0.0
 10
8.2001119697153
 20
6.978934795815149
 30
0.0
 10
8.209894761926433
 20
6.966283293648321
 30
0.0
 10
8.21558568118773
 20
6.960541005202005
 30
0.0
 10
8.227703969656279
 20
6.950268817739231
 30
0.0
 10
8.234196709952954
 20
6.945666470680974
 30
0.0
 10
8.254657488427545
 20
6.933068935051566
 30
0.0
 10
8.269129335017432
 20
6.926523841376796
 30
0.0
 10
8.298865460439401
 20
6.915658676590208
 30
0.0
 10
8.314272906577196
 20
6.911337911206893
 30
0.0
 10
8.360694035572708
 20
6.900866361081349
 30
0.0
 10
8.39181341515419
 20
6.897092793138867
 30
0.0
 10
8.454213231071728
 20
6.892549746724214
 30
0.0
 10
8.485497762379078
 20
6.891856649153661
 30
0.0
 10
8.516819452381739
 20
6.891856649153663
 30
0.0
  0
LINE
  5
AF
330
1F
100
AcDbEntity
  8
0
  6
Continuous
 62
     7
370
    15
100
AcDbLine
 10
8.0245576953
 20
6.8918566492
 30
0.0
 11
8.5168194524
 21
6.8918566492
 31
0.0
  0
LINE
  5
B0
330
1F
100
AcDbEntity
  8
0
  6
Continuous
 62
     7
370
    15
100
AcDbLine
 10
8.7775422222
 20
6.8918566492
 30
0.0
 11
9.0382649921
 21
6.8918566492
 31
0.0
  0
LINE
  5
B1
330
1F
100
AcDbEntity
  8
0
  6
Continuous
 62
     7
370
    15
100
AcDbLine
 10
8.5168194524
 20
6.8918566492
 30
0.0
 11
8.7775422222
 21
6.8918566492
 31
0.0
  0
LINE
  5
B2
330
1F
100
AcDbEntity
  8
0
  6
Continuous
 62
     7
370
    15
100
AcDbLine
 10
8.5168194524
 20
7.8918566492
 30
0.0
 11
9.0382649921
 21
7.8918566492
 31
0.0
  0
SPLINE
  5
B3
330
1F
100
AcDbEntity
  8
0
  6
Continuous
 62
     7
370
    15
100
AcDbSpline
210
0.0
220
0.0
230
1.0
 70
     8
 71
     3
 72
    44
 73
    40
 74
     0
 42
0.00000001
 43
0.00000001
 40
0.0
 40
0.0
 40
0.0
 40
0.0
 40
0.0156249999999979
 40
0.0156249999999979
 40
0.0312499999999959
 40
0.0312499999999959
 40
0.0624999999999958
 40
0.0624999999999958
 40
0.0937499999999957
 40
0.0937499999999957
 40
0.1249999999999957
 40
0.1249999999999957
 40
0.1562499999999956
 40
0.1562499999999956
 40
0.1874999999999955
 40
0.1874999999999955
 40
0.2499999999999953
 40
0.2499999999999953
 40
0.3749999999999951
 40
0.3749999999999951
 40
0.4999999999999949
 40
0.4999999999999949
 40
0.6249999999999946
 40
0.6249999999999946
 40
0.7499999999999943
 40
0.7499999999999943
 40
0.8124999999999948
 40
0.8124999999999948
 40
0.8437499999999957
 40
0.8437499999999957
 40
0.8749999999999966
 40
0.8749999999999966
 40
0.9062499999999974
 40
0.9062499999999974
 40
0.9374999999999983
 40
0.9374999999999983
 40
0.9687499999999992
 40
0.9687499999999992
 40
1.0
 40
1.0
 40
1.0
 40
1.0
 10
9.097971621622458
 20
8.328856649153662
 30
0.0
 10
9.097971621622458
 20
8.332715850273722
 30
0.0
 10
9.097604635720966
 20
8.336645010066254
 30
0.0
 10
9.096172988266645
 20
8.344296474839837
 30
0.0
 10
9.095118647537653
 20
8.348023225385978
 30
0.0
 10
9.091029826295944
 20
8.358932774832143
 30
0.0
 10
9.0870804218078
 20
8.365749105660718
 30
0.0
 10
9.077713958852652
 20
8.378044703657485
 30
0.0
 10
9.07219353953629
 20
8.383667098252308
 30
0.0
 10
9.060417306068537
 20
8.393644435525891
 30
0.0
 10
9.05411185367889
 20
8.398070299992826
 30
0.0
 10
9.040876896415073
 20
8.40608045372064
 30
0.0
 10
9.033940584164537
 20
8.40965666995975
 30
0.0
 10
9.019897363837842
 20
8.416003167994397
 30
0.0
 10
9.012745212525195
 20
8.41880010716438
 30
0.0
 10
8.990987469177673
 20
8.42632240028696
 30
0.0
 10
8.976059688712773
 20
8.43019516839276
 30
0.0
 10
8.930660977595249
 20
8.439556359306708
 30
0.0
 10
8.900154221052107
 20
8.44278216940606
 30
0.0
 10
8.838947451829187
 20
8.44681558570401
 30
0.0
 10
8.808217920435471
 20
8.447571607798844
 30
0.0
 10
8.746739523692154
 20
8.447569288603436
 30
0.0
 10
8.716068252123474
 20
8.446811756126738
 30
0.0
 10
8.654951465291296
 20
8.442782868366821
 30
0.0
 10
8.624501519340793
 20
8.43956084930051
 30
0.0
 10
8.579229354053316
 20
8.430243111932915
 30
0.0
 10
8.564177025262673
 20
8.426347581944771
 30
0.0
 10
8.542361089504775
 20
8.418808905669588
 30
0.0
 10
8.535198373392806
 20
8.416007807089203
 30
0.0
 10
8.521154819668771
 20
8.409662086468725
 30
0.0
 10
8.514237617905428
 20
8.406098036372104
 30
0.0
 10
8.500962208178574
 20
8.398064631707111
 30
0.0
 10
8.494636608050877
 20
8.393623764523952
 30
0.0
 10
8.482822717325073
 20
8.383604087566844
 30
0.0
 10
8.47732969722635
 20
8.377997743724618
 30
0.0
 10
8.467986863978748
 20
8.365719956093749
 30
0.0
 10
8.46402871958211
 20
8.3588737865481
 30
0.0
 10
8.458606100456127
 20
8.344385209215247
 30
0.0
 10
8.457112822821971
 20
8.33657421292659
 30
0.0
 10
8.457112822821971
 20
8.328856649153662
 30
0.0
  0
SPLINE
  5
B4
330
1F
100
AcDbEntity
  8
0
  6
Continuous
 62
     7
370
    15
100
AcDbSpline
210
0.0
220
0.0
230
1.0
 70
     8
 71
     3
 72
    40
 73
    36
 74
     0
 42
0.00000001
 43
0.00000001
 40
0.0
 40
0.0
 40
0.0
 40
0.0
 40
0.0312500000000008
 40
0.0312500000000008
 40
0.0625000000000016
 40
0.0625000000000016
 40
0.0937500000000024
 40
0.0937500000000024
 40
0.1250000000000032
 40
0.1250000000000032
 40
0.1875000000000026
 40
0.1875000000000026
 40
0.2500000000000021
 40
0.2500000000000021
 40
0.375000000000002
 40
0.375000000000002
 40
0.500000000000002
 40
0.500000000000002
 40
0.625000000000002
 40
0.625000000000002
 40
0.6875000000000017
 40
0.6875000000000017
 40
0.7500000000000013
 40
0.7500000000000013
 40
0.8125000000000011
 40
0.8125000000000011
 40
0.8750000000000008
 40
0.8750000000000008
 40
0.9062500000000006
 40
0.9062500000000006
 40
0.9375000000000004
 40
0.9375000000000004
 40
0.9687500000000002
 40
0.9687500000000002
 40
1.0
 40
1.0
 40
1.0
 40
1.0
 10
8.457112822821975
 20
8.328856649153662
 30
0.0
 10
8.457112822821975
 20
8.336728383607504
 30
0.0
 10
8.456373356951257
 20
8.344378026987096
 30
0.0
 10
8.453613145690301
 20
8.359065233368334
 30
0.0
 10
8.451642357965943
 20
8.36584069771122
 30
0.0
 10
8.446893155357834
 20
8.378256229021494
 30
0.0
 10
8.444175770513647
 20
8.38376222931532
 30
0.0
 10
8.438251731997886
 20
8.393772571785735
 30
0.0
 10
8.435028719914646
 20
8.398276266037989
 30
0.0
 10
8.425088628111387
 20
8.41024899359184
 30
0.0
 10
8.418007542747626
 20
8.416400724728954
 30
0.0
 10
8.403302051660814
 20
8.426515770032859
 30
0.0
 10
8.395847257368787
 20
8.430340006404588
 30
0.0
 10
8.373336714336686
 20
8.439570991048459
 30
0.0
 10
8.358115881485498
 20
8.44279946758059
 30
0.0
 10
8.327496421090586
 20
8.446823630199026
 30
0.0
 10
8.312091154299438
 20
8.447577009856678
 30
0.0
 10
8.281343811678493
 20
8.447563811400471
 30
0.0
 10
8.26595425745234
 20
8.446800323434905
 30
0.0
 10
8.24294205015433
 20
8.443742367413664
 30
0.0
 10
8.235285900074173
 20
8.442389640644144
 30
0.0
 10
8.220017892879225
 20
8.4386717127249
 30
0.0
 10
8.212405824258537
 20
8.436305619106879
 30
0.0
 10
8.197409336654168
 20
8.430078663600254
 30
0.0
 10
8.190008231851326
 20
8.426225958241215
 30
0.0
 10
8.1755154347554
 20
8.41616591889495
 30
0.0
 10
8.16837464362083
 20
8.409920664313624
 30
0.0
 10
8.158484883528402
 20
8.397896930664666
 30
0.0
 10
8.1553005507173
 20
8.39340192809633
 30
0.0
 10
8.149453302015509
 20
8.383435117809475
 30
0.0
 10
8.146769273386958
 20
8.377953665526427
 30
0.0
 10
8.142076095814476
 20
8.365587889935666
 30
0.0
 10
8.14013785257238
 20
8.358866862258678
 30
0.0
 10
8.137420355869313
 20
8.344321401206559
 30
0.0
 10
8.13668342342173
 20
8.336669582597834
 30
0.0
 10
8.13668342342173
 20
8.328856649153662
 30
0.0
  0
SPLINE
  5
B5
330
1F
100
AcDbEntity
  8
0
  6
Continuous
 62
     7
370
    15
100
AcDbSpline
210
0.0
220
0.0
230
1.0
 70
     8
 71
     3
 72
    40
 73
    36
 74
     0
 42
0.00000001
 43
0.00000001
 40
0.0
 40
0.0
 40
0.0
 40
0.0
 40
0.0312500000000008
 40
0.0312500000000008
 40
0.0625000000000015
 40
0.0625000000000015
 40
0.0937500000000023
 40
0.0937500000000023
 40
0.1250000000000031
 40
0.1250000000000031
 40
0.1875000000000024
 40
0.1875000000000024
 40
0.2500000000000017
 40
0.2500000000000017
 40
0.3750000000000013
 40
0.3750000000000013
 40
0.5000000000000009
 40
0.5000000000000009
 40
0.6250000000000006
 40
0.6250000000000006
 40
0.6875000000000004
 40
0.6875000000000004
 40
0.7500000000000002
 40
0.7500000000000002
 40
0.8125000000000001
 40
0.8125000000000001
 40
0.875
 40
0.875
 40
0.90625
 40
0.90625
 40
0.9375
 40
0.9375
 40
0.96875
 40
0.96875
 40
1.0
 40
1.0
 40
1.0
 40
1.0
 10
9.4184010210227
 20
8.328856649153662
 30
0.0
 10
9.4184010210227
 20
8.336728383607504
 30
0.0
 10
9.417661555151984
 20
8.344378026987096
 30
0.0
 10
9.414901343891028
 20
8.359065233368334
 30
0.0
 10
9.41293055616667
 20
8.365840697711223
 30
0.0
 10
9.408181353558561
 20
8.378256229021492
 30
0.0
 10
9.405463968714374
 20
8.38376222931532
 30
0.0
 10
9.399539930198612
 20
8.39377257178573
 30
0.0
 10
9.396316918115375
 20
8.398276266037987
 30
0.0
 10
9.386376826312114
 20
8.41024899359184
 30
0.0
 10
9.379295740948352
 20
8.416400724728955
 30
0.0
 10
9.364590249861543
 20
8.426515770032857
 30
0.0
 10
9.357135455569514
 20
8.430340006404588
 30
0.0
 10
9.334624912537413
 20
8.43957099104846
 30
0.0
 10
9.319404079686224
 20
8.442799467580588
 30
0.0
 10
9.288784619291315
 20
8.44682363019903
 30
0.0
 10
9.273379352500164
 20
8.44757700985668
 30
0.0
 10
9.24263200987922
 20
8.44756381140047
 30
0.0
 10
9.227242455653066
 20
8.446800323434905
 30
0.0
 10
9.204230248355055
 20
8.44374236741366
 30
0.0
 10
9.1965740982749
 20
8.442389640644144
 30
0.0
 10
9.181306091079952
 20
8.438671712724902
 30
0.0
 10
9.173694022459264
 20
8.436305619106882
 30
0.0
 10
9.158697534854895
 20
8.430078663600254
 30
0.0
 10
9.151296430052053
 20
8.426225958241213
 30
0.0
 10
9.136803632956125
 20
8.41616591889495
 30
0.0
 10
9.129662841821556
 20
8.409920664313622
 30
0.0
 10
9.119773081729129
 20
8.397896930664668
 30
0.0
 10
9.116588748918028
 20
8.393401928096331
 30
0.0
 10
9.110741500216234
 20
8.383435117809471
 30
0.0
 10
9.108057471587683
 20
8.377953665526427
 30
0.0
 10
9.103364294015202
 20
8.365587889935668
 30
0.0
 10
9.101426050773107
 20
8.358866862258678
 30
0.0
 10
9.09870855407004
 20
8.344321401206562
 30
0.0
 10
9.097971621622456
 20
8.336669582597834
 30
0.0
 10
9.097971621622456
 20
8.328856649153662
 30
0.0
  0
LINE
  5
B6
330
1F
100
AcDbEntity
  8
0
  6
Continuous
 62
     7
370
    15
100
AcDbLine
 10
8.2616834234
 20
8.4538566492
 30
0.0
 11
9.2934010158
 21
8.4538566492
 31
0.0
  0
SPLINE
  5
B7
330
1F
100
AcDbEntity
  8
0
  6
Continuous
 62
     7
370
    15
100
AcDbSpline
210
0.0
220
0.0
230
1.0
 70
     8
 71
     3
 72
    40
 73
    36
 74
     0
 42
0.00000001
 43
0.00000001
 40
0.0
 40
0.0
 40
0.0
 40
0.0
 40
0.0312500000000011
 40
0.0312500000000011
 40
0.0625000000000022
 40
0.0625000000000022
 40
0.0937500000000032
 40
0.0937500000000032
 40
0.1250000000000043
 40
0.1250000000000043
 40
0.1875000000000043
 40
0.1875000000000043
 40
0.2500000000000043
 40
0.2500000000000043
 40
0.3750000000000036
 40
0.3750000000000036
 40
0.5000000000000029
 40
0.5000000000000029
 40
0.6250000000000022
 40
0.6250000000000022
 40
0.6875000000000017
 40
0.6875000000000017
 40
0.7500000000000011
 40
0.7500000000000011
 40
0.8125000000000007
 40
0.8125000000000007
 40
0.8750000000000002
 40
0.8750000000000002
 40
0.9062500000000002
 40
0.9062500000000002
 40
0.9375000000000002
 40
0.9375000000000002
 40
0.9687500000000001
 40
0.9687500000000001
 40
1.0
 40
1.0
 40
1.0
 40
1.0
 10
9.097971621622456
 20
8.198691042489482
 30
0.0
 10
9.097971621622456
 20
8.190819308035643
 30
0.0
 10
9.098711087493173
 20
8.183169664656049
 30
0.0
 10
9.101471298754129
 20
8.16848245827481
 30
0.0
 10
9.103442086478488
 20
8.161706993931924
 30
0.0
 10
9.108191289086596
 20
8.149291462621651
 30
0.0
 10
9.110908673930785
 20
8.143785462327829
 30
0.0
 10
9.116832712446545
 20
8.133775119857413
 30
0.0
 10
9.120055724529784
 20
8.12927142560516
 30
0.0
 10
9.129995816333043
 20
8.117298698051306
 30
0.0
 10
9.137076901696805
 20
8.111146966914191
 30
0.0
 10
9.151782392783616
 20
8.101031921610288
 30
0.0
 10
9.159237187075645
 20
8.097207685238558
 30
0.0
 10
9.181747730107745
 20
8.08797670059468
 30
0.0
 10
9.196968562958933
 20
8.084748224062555
 30
0.0
 10
9.227588023353842
 20
8.080724061444117
 30
0.0
 10
9.242993290144993
 20
8.079970681786465
 30
0.0
 10
9.273740632765938
 20
8.079983880242674
 30
0.0
 10
9.289130186992093
 20
8.08074736820824
 30
0.0
 10
9.3121423942901
 20
8.08380532422948
 30
0.0
 10
9.319798544370258
 20
8.085158050999002
 30
0.0
 10
9.335066551565204
 20
8.088875978918248
 30
0.0
 10
9.342678620185895
 20
8.091242072536268
 30
0.0
 10
9.357675107790262
 20
8.097469028042891
 30
0.0
 10
9.365076212593104
 20
8.101321733401932
 30
0.0
 10
9.379569009689032
 20
8.111381772748194
 30
0.0
 10
9.386709800823601
 20
8.117627027329522
 30
0.0
 10
9.396599560916028
 20
8.129650760978476
 30
0.0
 10
9.39978389372713
 20
8.134145763546815
 30
0.0
 10
9.405631142428922
 20
8.14411257383367
 30
0.0
 10
9.408315171057472
 20
8.14959402611672
 30
0.0
 10
9.413008348629955
 20
8.161959801707477
 30
0.0
 10
9.41494659187205
 20
8.168680829384467
 30
0.0
 10
9.417664088575117
 20
8.183226290436586
 30
0.0
 10
9.4184010210227
 20
8.190878109045311
 30
0.0
 10
9.4184010210227
 20
8.198691042489482
 30
0.0
  0
LINE
  5
B8
330
1F
100
AcDbEntity
  8
0
  6
Continuous
 62
     7
370
    15
100
AcDbLine
 10
9.0979716216
 20
8.3288566492
 30
0.0
 11
9.0979716216
 21
8.1986910425
 31
0.0
  0
LINE
  5
B9
330
1F
100
AcDbEntity
  8
0
  6
Continuous
 62
     7
370
    15
100
AcDbLine
 10
9.418401021
 20
8.3288566492
 30
0.0
 11
9.418401021
 21
8.1986910425
 31
0.0
  0
SPLINE
  5
BA
330
1F
100
AcDbEntity
  8
0
  6
Continuous
 62
     7
370
    15
100
AcDbSpline
210
0.0
220
0.0
230
1.0
 70
     8
 71
     3
 72
    44
 73
    40
 74
     0
 42
0.00000001
 43
0.00000001
 40
0.0
 40
0.0
 40
0.0
 40
0.0
 40
0.0156249999999979
 40
0.0156249999999979
 40
0.0312499999999958
 40
0.0312499999999958
 40
0.0624999999999957
 40
0.0624999999999957
 40
0.0937499999999957
 40
0.0937499999999957
 40
0.1249999999999957
 40
0.1249999999999957
 40
0.1562499999999957
 40
0.1562499999999957
 40
0.1874999999999956
 40
0.1874999999999956
 40
0.2499999999999956
 40
0.2499999999999956
 40
0.3749999999999953
 40
0.3749999999999953
 40
0.4999999999999951
 40
0.4999999999999951
 40
0.6249999999999948
 40
0.6249999999999948
 40
0.7499999999999944
 40
0.7499999999999944
 40
0.8124999999999948
 40
0.8124999999999948
 40
0.8437499999999957
 40
0.8437499999999957
 40
0.8749999999999966
 40
0.8749999999999966
 40
0.9062499999999974
 40
0.9062499999999974
 40
0.9374999999999982
 40
0.9374999999999982
 40
0.9687499999999991
 40
0.9687499999999991
 40
1.0
 40
1.0
 40
1.0
 40
1.0
 10
8.457112822821971
 20
8.198691042489482
 30
0.0
 10
8.457112822821971
 20
8.194831841369426
 30
0.0
 10
8.457479808723463
 20
8.190902681576889
 30
0.0
 10
8.458911456177786
 20
8.183251216803308
 30
0.0
 10
8.459965796906777
 20
8.179524466257169
 30
0.0
 10
8.464054618148486
 20
8.168614916811002
 30
0.0
 10
8.46800402263663
 20
8.161798585982428
 30
0.0
 10
8.477370485591779
 20
8.149502987985661
 30
0.0
 10
8.48289090490814
 20
8.143880593390834
 30
0.0
 10
8.494667138375894
 20
8.133903256117252
 30
0.0
 10
8.50097259076554
 20
8.129477391650319
 30
0.0
 10
8.514207548029358
 20
8.121467237922506
 30
0.0
 10
8.521143860279894
 20
8.117891021683395
 30
0.0
 10
8.535187080606587
 20
8.11154452364875
 30
0.0
 10
8.542339231919238
 20
8.108747584478767
 30
0.0
 10
8.564096975266759
 20
8.101225291356183
 30
0.0
 10
8.579024755731657
 20
8.097352523250386
 30
0.0
 10
8.624423466849182
 20
8.087991332336436
 30
0.0
 10
8.654930223392324
 20
8.084765522237085
 30
0.0
 10
8.716136992615246
 20
8.08073210593913
 30
0.0
 10
8.746866524008963
 20
8.0799760838443
 30
0.0
 10
8.80834492075228
 20
8.079978403039712
 30
0.0
 10
8.83901619232096
 20
8.080735935516406
 30
0.0
 10
8.900132979153137
 20
8.084764823276322
 30
0.0
 10
8.93058292510364
 20
8.087986842342634
 30
0.0
 10
8.975855090391114
 20
8.097304579710231
 30
0.0
 10
8.990907419181758
 20
8.101200109698375
 30
0.0
 10
9.01272335493966
 20
8.108738785973557
 30
0.0
 10
9.019886071051625
 20
8.111539884553942
 30
0.0
 10
9.03392962477566
 20
8.117885605174422
 30
0.0
 10
9.040846826539003
 20
8.121449655271045
 30
0.0
 10
9.054122236265858
 20
8.129483059936037
 30
0.0
 10
9.060447836393553
 20
8.133923927119197
 30
0.0
 10
9.07226172711936
 20
8.1439436040763
 30
0.0
 10
9.077754747218082
 20
8.149549947918526
 30
0.0
 10
9.087097580465683
 20
8.161827735549402
 30
0.0
 10
9.09105572486232
 20
8.168673905095046
 30
0.0
 10
9.096478343988306
 20
8.183162482427898
 30
0.0
 10
9.097971621622458
 20
8.190973478716554
 30
0.0
 10
9.097971621622458
 20
8.198691042489482
 30
0.0
  0
SPLINE
  5
BB
330
1F
100
AcDbEntity
  8
0
  6
Continuous
 62
     7
370
    15
100
AcDbSpline
210
0.0
220
0.0
230
1.0
 70
     8
 71
     3
 72
    40
 73
    36
 74
     0
 42
0.00000001
 43
0.00000001
 40
0.0
 40
0.0
 40
0.0
 40
0.0
 40
0.0312500000000014
 40
0.0312500000000014
 40
0.0625000000000027
 40
0.0625000000000027
 40
0.0937500000000041
 40
0.0937500000000041
 40
0.1250000000000054
 40
0.1250000000000054
 40
0.1875000000000055
 40
0.1875000000000055
 40
0.2500000000000056
 40
0.2500000000000056
 40
0.3750000000000047
 40
0.3750000000000047
 40
0.5000000000000037
 40
0.5000000000000037
 40
0.6250000000000028
 40
0.6250000000000028
 40
0.6875000000000022
 40
0.6875000000000022
 40
0.7500000000000018
 40
0.7500000000000018
 40
0.8125000000000012
 40
0.8125000000000012
 40
0.8750000000000008
 40
0.8750000000000008
 40
0.9062500000000006
 40
0.9062500000000006
 40
0.9375000000000003
 40
0.9375000000000003
 40
0.9687500000000002
 40
0.9687500000000002
 40
1.0
 40
1.0
 40
1.0
 40
1.0
 10
8.13668342342173
 20
8.198691042489482
 30
0.0
 10
8.13668342342173
 20
8.19081930803564
 30
0.0
 10
8.137422889292447
 20
8.18316966465605
 30
0.0
 10
8.140183100553402
 20
8.168482458274811
 30
0.0
 10
8.142153888277761
 20
8.161706993931922
 30
0.0
 10
8.14690309088587
 20
8.149291462621653
 30
0.0
 10
8.149620475730057
 20
8.143785462327825
 30
0.0
 10
8.155544514245818
 20
8.13377511985741
 30
0.0
 10
8.158767526329056
 20
8.129271425605157
 30
0.0
 10
8.168707618132316
 20
8.117298698051307
 30
0.0
 10
8.175788703496078
 20
8.111146966914191
 30
0.0
 10
8.19049419458289
 20
8.101031921610288
 30
0.0
 10
8.197948988874916
 20
8.097207685238557
 30
0.0
 10
8.220459531907018
 20
8.087976700594684
 30
0.0
 10
8.235680364758206
 20
8.084748224062555
 30
0.0
 10
8.266299825153117
 20
8.080724061444116
 30
0.0
 10
8.281705091944268
 20
8.079970681786467
 30
0.0
 10
8.31245243456521
 20
8.079983880242674
 30
0.0
 10
8.327841988791365
 20
8.08074736820824
 30
0.0
 10
8.350854196089374
 20
8.083805324229482
 30
0.0
 10
8.35851034616953
 20
8.085158050999
 30
0.0
 10
8.373778353364479
 20
8.088875978918244
 30
0.0
 10
8.381390421985166
 20
8.091242072536266
 30
0.0
 10
8.396386909589536
 20
8.09746902804289
 30
0.0
 10
8.403788014392378
 20
8.101321733401932
 30
0.0
 10
8.418280811488305
 20
8.111381772748192
 30
0.0
 10
8.425421602622876
 20
8.11762702732952
 30
0.0
 10
8.435311362715302
 20
8.129650760978476
 30
0.0
 10
8.438495695526404
 20
8.134145763546814
 30
0.0
 10
8.444342944228195
 20
8.144112573833672
 30
0.0
 10
8.447026972856747
 20
8.14959402611672
 30
0.0
 10
8.451720150429228
 20
8.161959801707477
 30
0.0
 10
8.453658393671326
 20
8.16868082938447
 30
0.0
 10
8.45637589037439
 20
8.183226290436584
 30
0.0
 10
8.457112822821975
 20
8.19087810904531
 30
0.0
 10
8.457112822821975
 20
8.198691042489482
 30
0.0
  0
LINE
  5
BC
330
1F
100
AcDbEntity
  8
0
  6
Continuous
 62
     7
370
    15
100
AcDbLine
 10
8.2261205471
 20
8.0788566492
 30
0.0
 11
9.3289638974
 21
8.0788566492
 31
0.0
  0
LINE
  5
BD
330
1F
100
AcDbEntity
  8
0
  6
Continuous
 62
     7
370
    15
100
AcDbLine
 10
8.1366834234
 20
8.3288566492
 30
0.0
 11
8.1366834234
 21
8.1986910425
 31
0.0
  0
LINE
  5
BE
330
1F
100
AcDbEntity
  8
0
  6
Continuous
 62
     7
370
    15
100
AcDbLine
 10
8.4571128228
 20
8.3288566492
 30
0.0
 11
8.4571128228
 21
8.1986910425
 31
0.0
  0
LINE
  5
BF
330
1F
100
AcDbEntity
  8
0
  6
Continuous
 62
     7
370
    15
100
AcDbLine
 10
9.3325422222
 20
8.0775220202
 30
0.0
 11
8.2225422222
 21
8.0775220202
 31
0.0
  0
CIRCLE
  5
C0
330
1F
100
AcDbEntity
  8
0
  6
Continuous
 62
     7
370
    15
100
AcDbCircle
 10
8.7775422222
 20
2.4318566492
 30
0.0
 40
0.4609375
  0
LINE
  5
C1
330
1F
100
AcDbEntity
  8
0
  6
Continuous
 62
     7
370
    15
100
AcDbLine
 10
9.791249519
 20
7.8918566492
 30
0.0
 11
9.8303367714
 21
7.8918566492
 31
0.0
  0
LINE
  5
C2
330
1F
100
AcDbEntity
  8
0
  6
Continuous
 62
     7
370
    15
100
AcDbLine
 10
7.7247476731
 20
6.8918566492
 30
0.0
 11
7.7638349254
 21
6.8918566492
 31
0.0
  0
LINE
  5
C3
330
1F
100
AcDbEntity
  8
0
  6
Continuous
 62
     7
370
    15
100
AcDbLine
 10
7.7247476731
 20
7.8918566492
 30
0.0
 11
7.7638349254
 21
7.8918566492
 31
0.0
  0
LINE
  5
C4
330
1F
100
AcDbEntity
  8
0
  6
Continuous
 62
     7
370
    15
100
AcDbLine
 10
9.791249519
 20
6.8918566492
 30
0.0
 11
9.8303367714
 21
6.8918566492
 31
0.0
  0
LINE
  5
C5
330
1F
100
AcDbEntity
  8
0
  6
Continuous
 62
     7
370
    15
100
AcDbLine
 10
7.63237163
 20
1.5968566492
 30
0.0
 11
7.6656851309
 21
1.5968566492
 31
0.0
  0
LINE
  5
C6
330
1F
100
AcDbEntity
  8
0
  6
Continuous
 62
     7
370
    15
100
AcDbLine
 10
9.8893993136
 20
3.2668566492
 30
0.0
 11
9.9227128144
 21
3.2668566492
 31
0.0
  0
LINE
  5
C7
330
1F
100
AcDbEntity
  8
0
  6
Continuous
 62
     7
370
    15
100
AcDbLine
 10
7.63237163
 20
3.2668566492
 30
0.0
 11
7.6656851309
 21
3.2668566492
 31
0.0
  0
LINE
  5
C8
330
1F
100
AcDbEntity
  8
0
  6
Continuous
 62
     7
370
    15
100
AcDbLine
 10
9.8893993136
 20
1.5968566492
 30
0.0
 11
9.9227128144
 21
1.5968566492
 31
0.0
  0
DIMENSION
  5
C9
330
1F
100
AcDbEntity
  8
TEXTF
100
AcDbDimension
  2
*D1
 10
10.4734768672
 20
8.4538566492
 30
0.0
 11
10.4734768672
 21
6.026719643
 31
0.0
 70
   160
 71
     2
 42
-1.0
  3
SLDDIMSTYLE0
100
AcDbAlignedDimension
 13
9.7275422222
 23
0.0968566492
 33
0.0
 14
9.293401021
 24
8.4538566492
 34
0.0
 50
90.0
100
AcDbRotatedDimension
  0
DIMENSION
  5
D5
330
1F
100
AcDbEntity
  8
TEXTF
100
AcDbDimension
  2
*D2
 10
7.50737163
 20
9.1081757218
 30
0.0
 11
8.5681796921
 21
9.1081757218
 31
0.0
 70
   160
 71
     2
 42
-1.0
  3
SLDDIMSTYLE1
100
AcDbAlignedDimension
 13
10.0477128144
 23
3.1418566492
 33
0.0
 14
7.50737163
 24
3.1418566492
 34
0.0
100
AcDbRotatedDimension
  0
LINE
  5
E1
330
1F
100
AcDbEntity
  8
0
  6
Continuous
 62
     7
370
    15
100
AcDbLine
 10
5.3405555556
 20
3.2668566492
 30
0.0
 11
5.3405555556
 21
4.4368566492
 31
0.0
  0
LINE
  5
E2
330
1F
100
AcDbEntity
  8
0
  6
Continuous
 62
     7
370
    15
100
AcDbLine
 10
3.1405555556
 20
4.4368566492
 30
0.0
 11
3.1405555556
 21
3.2668566492
 31
0.0
  0
LINE
  5
E3
330
1F
100
AcDbEntity
  8
0
  6
Continuous
 62
     7
370
    15
100
AcDbLine
 10
3.1405555556
 20
1.5968566492
 30
0.0
 11
3.1405555556
 21
0.2468566492
 31
0.0
  0
LINE
  5
E4
330
1F
100
AcDbEntity
  8
0
  6
Continuous
 62
     7
370
    15
100
AcDbLine
 10
5.3405555556
 20
0.2468566492
 30
0.0
 11
5.3405555556
 21
1.5968566492
 31
0.0
  0
LINE
  5
E5
330
1F
100
AcDbEntity
  8
0
  6
Continuous
 62
     7
370
    15
100
AcDbLine
 10
3.1405555556
 20
0.2468566492
 30
0.0
 11
3.2905555556
 21
0.0968566492
 31
0.0
  0
LINE
  5
E6
330
1F
100
AcDbEntity
  8
0
  6
Continuous
 62
     7
370
    15
100
AcDbLine
 10
5.1905555556
 20
0.0968566492
 30
0.0
 11
5.3405555556
 21
0.2468566492
 31
0.0
  0
LINE
  5
E7
330
1F
100
AcDbEntity
  8
0
  6
Continuous
 62
     7
370
    15
100
AcDbLine
 10
5.3405555556
 20
4.4368566492
 30
0.0
 11
5.2605555556
 21
4.5168566492
 31
0.0
  0
LINE
  5
E8
330
1F
100
AcDbEntity
  8
0
  6
Continuous
 62
     7
370
    15
100
AcDbLine
 10
3.2205555556
 20
4.5168566492
 30
0.0
 11
3.1405555556
 21
4.4368566492
 31
0.0
  0
LINE
  5
E9
330
1F
100
AcDbEntity
  8
0
  6
Continuous
 62
     7
370
    15
100
AcDbLine
 10
5.2605555556
 20
4.5168566492
 30
0.0
 11
5.2605555556
 21
6.8918566492
 31
0.0
  0
LINE
  5
EA
330
1F
100
AcDbEntity
  8
0
  6
Continuous
 62
     7
370
    15
100
AcDbLine
 10
3.2205555556
 20
6.8918566492
 30
0.0
 11
3.2205555556
 21
4.5168566492
 31
0.0
  0
ARC
  5
EB
330
1F
100
AcDbEntity
  8
0
  6
Continuous
 62
     7
370
    15
100
AcDbCircle
 10
3.7246967568
 20
8.1986910425
 30
0.0
 40
0.125000000000002
100
AcDbArc
 50
251.7436137367
 51
253.4708565526
  0
ARC
  5
EC
330
1F
100
AcDbEntity
  8
0
  6
Continuous
 62
     7
370
    15
100
AcDbCircle
 10
4.7564143544
 20
8.1986910425
 30
0.0
 40
0.125000000000002
100
AcDbArc
 50
286.5291434474
 51
288.2777479888
  0
ARC
  5
ED
330
1F
100
AcDbEntity
  8
0
  6
Continuous
 62
     7
370
    15
100
AcDbCircle
 10
3.7246967568
 20
8.3288566492
 30
0.0
 40
0.1250000000000018
100
AcDbArc
 50
90.0
 51
108.2777479888
  0
ARC
  5
EE
330
1F
100
AcDbEntity
  8
0
  6
Continuous
 62
     7
370
    15
100
AcDbCircle
 10
4.7564143544
 20
8.3288566492
 30
0.0
 40
0.1250000000000018
100
AcDbArc
 50
71.7436137367
 51
90.0
  0
LINE
  5
EF
330
1F
100
AcDbEntity
  8
0
  6
Continuous
 62
     7
370
    15
100
AcDbLine
 10
4.7955555556
 20
7.8918566492
 30
0.0
 11
4.7955555556
 21
8.0775220202
 31
0.0
  0
LINE
  5
F0
330
1F
100
AcDbEntity
  8
0
  6
Continuous
 62
     7
370
    15
100
AcDbLine
 10
3.6855555556
 20
8.0775220202
 30
0.0
 11
3.6855555556
 21
7.8918566492
 31
0.0
  0
LINE
  5
F1
330
1F
100
AcDbEntity
  8
0
  6
Continuous
 62
     7
370
    15
100
AcDbLine
 10
4.7955555556
 20
8.0775220202
 30
0.0
 11
4.7919772307
 21
8.0788566492
 31
0.0
  0
LINE
  5
F2
330
1F
100
AcDbEntity
  8
0
  6
Continuous
 62
     7
370
    15
100
AcDbLine
 10
3.6891338804
 20
8.0788566492
 30
0.0
 11
3.6855555556
 21
8.0775220202
 31
0.0
  0
SPLINE
  5
F3
330
1F
100
AcDbEntity
  8
0
  6
Continuous
 62
     7
370
    15
100
AcDbSpline
210
0.0
220
0.0
230
1.0
 70
     8
 71
     3
 72
    22
 73
    18
 74
     0
 42
0.00000001
 43
0.00000001
 40
0.0
 40
0.0
 40
0.0
 40
0.0
 40
0.2499999999999994
 40
0.2499999999999994
 40
0.3749999999999992
 40
0.3749999999999992
 40
0.499999999999999
 40
0.499999999999999
 40
0.6249999999999988
 40
0.6249999999999988
 40
0.7499999999999986
 40
0.7499999999999986
 40
0.8749999999999986
 40
0.8749999999999986
 40
0.9374999999999992
 40
0.9374999999999992
 40
1.0
 40
1.0
 40
1.0
 40
1.0
 10
3.966348528561173
 20
1.596856649153663
 30
0.0
 10
3.992852917254636
 20
1.596856649153663
 30
0.0
 10
4.019394645008089
 20
1.597698835596697
 30
0.0
 10
4.059069569378359
 20
1.601495209997531
 30
0.0
 10
4.072249249409613
 20
1.603184739340992
 30
0.0
 10
4.0984846638509
 20
1.607724236252964
 30
0.0
 10
4.111572484673505
 20
1.610582036042605
 30
0.0
 10
4.13725956885409
 20
1.617838504100189
 30
0.0
 10
4.149887989501404
 20
1.622228801593078
 30
0.0
 10
4.174510764584757
 20
1.633255563612416
 30
0.0
 10
4.18663299412531
 20
1.639950990600518
 30
0.0
 10
4.20899541795167
 20
1.656621579659544
 30
0.0
 10
4.219358943258751
 20
1.66665888468095
 30
0.0
 10
4.23125666305716
 20
1.685119710663331
 30
0.0
 10
4.23462248965938
 20
1.691932933105898
 30
0.0
 10
4.239257740327646
 20
1.706339425490483
 30
0.0
 10
4.24055555555563
 20
1.714069746589088
 30
0.0
 10
4.240555555555631
 20
1.721856649153654
 30
0.0
  0
LINE
  5
F4
330
1F
100
AcDbEntity
  8
0
  6
Continuous
 62
     7
370
    15
100
AcDbLine
 10
3.6905555556
 20
1.5968566492
 30
0.0
 11
3.9663485286
 21
1.5968566492
 31
0.0
  0
LINE
  5
F5
330
1F
100
AcDbEntity
  8
0
  6
Continuous
 62
     7
370
    15
100
AcDbLine
 10
3.4147625825
 20
1.5968566492
 30
0.0
 11
3.6905555556
 21
1.5968566492
 31
0.0
  0
SPLINE
  5
F6
330
1F
100
AcDbEntity
  8
0
  6
Continuous
 62
     7
370
    15
100
AcDbSpline
210
0.0
220
0.0
230
1.0
 70
     8
 71
     3
 72
    22
 73
    18
 74
     0
 42
0.00000001
 43
0.00000001
 40
0.0
 40
0.0
 40
0.0
 40
0.0
 40
0.0625000000000003
 40
0.0625000000000003
 40
0.1250000000000006
 40
0.1250000000000006
 40
0.1875000000000009
 40
0.1875000000000009
 40
0.2500000000000013
 40
0.2500000000000013
 40
0.3750000000000011
 40
0.3750000000000011
 40
0.500000000000001
 40
0.500000000000001
 40
0.7500000000000004
 40
0.7500000000000004
 40
1.0
 40
1.0
 40
1.0
 40
1.0
 10
3.140555555555554
 20
1.721856649153664
 30
0.0
 10
3.140555555555554
 20
1.714030557854954
 30
0.0
 10
3.141820829645273
 20
1.706435436502612
 30
0.0
 10
3.146530991248529
 20
1.691806385055028
 30
0.0
 10
3.149880042898697
 20
1.685056283413625
 30
0.0
 10
3.157942356069992
 20
1.67259454735596
 30
0.0
 10
3.162545636036771
 20
1.667033879538199
 30
0.0
 10
3.172553258103611
 20
1.656850928923312
 30
0.0
 10
3.177999350134567
 20
1.65221371484841
 30
0.0
 10
3.194838656328961
 20
1.639727620685929
 30
0.0
 10
3.206822529674406
 20
1.633131429148945
 30
0.0
 10
3.231709863422577
 20
1.622036172358949
 30
0.0
 10
3.244525196144711
 20
1.617619979180517
 30
0.0
 10
3.28302915712812
 20
1.606829727193416
 30
0.0
 10
3.30911330994829
 20
1.602726005393984
 30
0.0
 10
3.36170954634647
 20
1.597705800660006
 30
0.0
 10
3.388263515810858
 20
1.596856649153663
 30
0.0
 10
3.414762582549939
 20
1.596856649153663
 30
0.0
  0
LINE
  5
F7
330
1F
100
AcDbEntity
  8
0
  6
Continuous
 62
     7
370
    15
100
AcDbLine
 10
3.1405555556
 20
3.1418566492
 30
0.0
 11
3.1405555556
 21
1.7218566492
 31
0.0
  0
SPLINE
  5
F8
330
1F
100
AcDbEntity
  8
0
  6
Continuous
 62
     7
370
    15
100
AcDbSpline
210
0.0
220
0.0
230
1.0
 70
     8
 71
     3
 72
    22
 73
    18
 74
     0
 42
0.00000001
 43
0.00000001
 40
0.0
 40
0.0
 40
0.0
 40
0.0
 40
0.249999999999999
 40
0.249999999999999
 40
0.3749999999999991
 40
0.3749999999999991
 40
0.4999999999999991
 40
0.4999999999999991
 40
0.6249999999999991
 40
0.6249999999999991
 40
0.7499999999999992
 40
0.7499999999999992
 40
0.8749999999999992
 40
0.8749999999999992
 40
0.9374999999999996
 40
0.9374999999999996
 40
1.0
 40
1.0
 40
1.0
 40
1.0
 10
3.414762582549937
 20
3.266856649153663
 30
0.0
 10
3.388258193856474
 20
3.266856649153663
 30
0.0
 10
3.361716466103021
 20
3.26601446271063
 30
0.0
 10
3.322041541732752
 20
3.262218088309795
 30
0.0
 10
3.308861861701497
 20
3.260528558966334
 30
0.0
 10
3.282626447260209
 20
3.255989062054361
 30
0.0
 10
3.269538626437605
 20
3.253131262264721
 30
0.0
 10
3.24385154225702
 20
3.245874794207137
 30
0.0
 10
3.231223121609706
 20
3.241484496714248
 30
0.0
 10
3.206600346526353
 20
3.23045773469491
 30
0.0
 10
3.194478116985801
 20
3.223762307706808
 30
0.0
 10
3.172115693159439
 20
3.207091718647781
 30
0.0
 10
3.161752167852359
 20
3.197054413626376
 30
0.0
 10
3.14985444805395
 20
3.178593587643995
 30
0.0
 10
3.146488621451731
 20
3.171780365201428
 30
0.0
 10
3.141853370783463
 20
3.157373872816843
 30
0.0
 10
3.140555555555479
 20
3.149643551718238
 30
0.0
 10
3.140555555555478
 20
3.141856649153671
 30
0.0
  0
LINE
  5
F9
330
1F
100
AcDbEntity
  8
0
  6
Continuous
 62
     7
370
    15
100
AcDbLine
 10
3.4147625825
 20
3.2668566492
 30
0.0
 11
3.6905555556
 21
3.2668566492
 31
0.0
  0
LINE
  5
FA
330
1F
100
AcDbEntity
  8
0
  6
Continuous
 62
     7
370
    15
100
AcDbLine
 10
3.6905555556
 20
3.2668566492
 30
0.0
 11
3.9663485286
 21
3.2668566492
 31
0.0
  0
SPLINE
  5
FB
330
1F
100
AcDbEntity
  8
0
  6
Continuous
 62
     7
370
    15
100
AcDbSpline
210
0.0
220
0.0
230
1.0
 70
     8
 71
     3
 72
    22
 73
    18
 74
     0
 42
0.00000001
 43
0.00000001
 40
0.0
 40
0.0
 40
0.0
 40
0.0
 40
0.0624999999999999
 40
0.0624999999999999
 40
0.1249999999999999
 40
0.1249999999999999
 40
0.1874999999999998
 40
0.1874999999999998
 40
0.2499999999999998
 40
0.2499999999999998
 40
0.3750000000000003
 40
0.3750000000000003
 40
0.5000000000000003
 40
0.5000000000000003
 40
0.7500000000000001
 40
0.7500000000000001
 40
1.0
 40
1.0
 40
1.0
 40
1.0
 10
4.240555555555555
 20
3.141856649153662
 30
0.0
 10
4.240555555555555
 20
3.149682740452372
 30
0.0
 10
4.239290281465837
 20
3.157277861804715
 30
0.0
 10
4.234580119862581
 20
3.171906913252297
 30
0.0
 10
4.231231068212412
 20
3.178657014893701
 30
0.0
 10
4.223168755041119
 20
3.191118750951365
 30
0.0
 10
4.21856547507434
 20
3.196679418769126
 30
0.0
 10
4.2085578530075
 20
3.206862369384013
 30
0.0
 10
4.203111760976543
 20
3.211499583458915
 30
0.0
 10
4.18627245478215
 20
3.223985677621397
 30
0.0
 10
4.174288581436705
 20
3.23058186915838
 30
0.0
 10
4.149401247688534
 20
3.241677125948377
 30
0.0
 10
4.1365859149664
 20
3.246093319126808
 30
0.0
 10
4.098081953982991
 20
3.256883571113909
 30
0.0
 10
4.071997801162821
 20
3.260987292913342
 30
0.0
 10
4.019401564764643
 20
3.26600749764732
 30
0.0
 10
3.992847595300255
 20
3.266856649153663
 30
0.0
 10
3.966348528561173
 20
3.266856649153663
 30
0.0
  0
LINE
  5
FC
330
1F
100
AcDbEntity
  8
0
  6
Continuous
 62
     7
370
    15
100
AcDbLine
 10
4.2405555556
 20
3.1418566492
 30
0.0
 11
4.2405555556
 21
1.7218566492
 31
0.0
  0
LINE
  5
FD
330
1F
100
AcDbEntity
  8
0
  6
Continuous
 62
     7
370
    15
100
AcDbLine
 10
3.9663485286
 20
3.2668566492
 30
0.0
 11
4.5147625825
 21
3.2668566492
 31
0.0
  0
SPLINE
  5
FE
330
1F
100
AcDbEntity
  8
0
  6
Continuous
 62
     7
370
    15
100
AcDbSpline
210
0.0
220
0.0
230
1.0
 70
     8
 71
     3
 72
    22
 73
    18
 74
     0
 42
0.00000001
 43
0.00000001
 40
0.0
 40
0.0
 40
0.0
 40
0.0
 40
0.2499999999999998
 40
0.2499999999999998
 40
0.3749999999999998
 40
0.3749999999999998
 40
0.4999999999999996
 40
0.4999999999999996
 40
0.625
 40
0.625
 40
0.7500000000000004
 40
0.7500000000000004
 40
0.875000000000001
 40
0.875000000000001
 40
0.9375000000000004
 40
0.9375000000000004
 40
1.0
 40
1.0
 40
1.0
 40
1.0
 10
4.514762582549936
 20
3.266856649153663
 30
0.0
 10
4.488258193856474
 20
3.266856649153663
 30
0.0
 10
4.461716466103021
 20
3.26601446271063
 30
0.0
 10
4.422041541732751
 20
3.262218088309795
 30
0.0
 10
4.408861861701497
 20
3.260528558966334
 30
0.0
 10
4.382626447260209
 20
3.255989062054361
 30
0.0
 10
4.369538626437605
 20
3.253131262264721
 30
0.0
 10
4.34385154225702
 20
3.245874794207136
 30
0.0
 10
4.331223121609706
 20
3.241484496714248
 30
0.0
 10
4.306600346526353
 20
3.23045773469491
 30
0.0
 10
4.294478116985801
 20
3.223762307706808
 30
0.0
 10
4.27211569315944
 20
3.207091718647781
 30
0.0
 10
4.261752167852358
 20
3.197054413626376
 30
0.0
 10
4.24985444805395
 20
3.178593587643995
 30
0.0
 10
4.246488621451731
 20
3.171780365201428
 30
0.0
 10
4.241853370783463
 20
3.157373872816843
 30
0.0
 10
4.240555555555479
 20
3.149643551718238
 30
0.0
 10
4.240555555555479
 20
3.141856649153671
 30
0.0
  0
SPLINE
  5
FF
330
1F
100
AcDbEntity
  8
0
  6
Continuous
 62
     7
370
    15
100
AcDbSpline
210
0.0
220
0.0
230
1.0
 70
     8
 71
     3
 72
    22
 73
    18
 74
     0
 42
0.00000001
 43
0.00000001
 40
0.0
 40
0.0
 40
0.0
 40
0.0
 40
0.0624999999999999
 40
0.0624999999999999
 40
0.1249999999999998
 40
0.1249999999999998
 40
0.1874999999999996
 40
0.1874999999999996
 40
0.2499999999999995
 40
0.2499999999999995
 40
0.3749999999999996
 40
0.3749999999999996
 40
0.5000000000000001
 40
0.5000000000000001
 40
0.75
 40
0.75
 40
1.0
 40
1.0
 40
1.0
 40
1.0
 10
4.240555555555555
 20
1.721856649153664
 30
0.0
 10
4.240555555555555
 20
1.714030557854946
 30
0.0
 10
4.241820829645277
 20
1.706435436502597
 30
0.0
 10
4.24653099124854
 20
1.691806385055003
 30
0.0
 10
4.249880042898714
 20
1.685056283413594
 30
0.0
 10
4.25794235607002
 20
1.672594547355922
 30
0.0
 10
4.262545636036805
 20
1.667033879538159
 30
0.0
 10
4.272553258103658
 20
1.656850928923268
 30
0.0
 10
4.277999350134622
 20
1.652213714848366
 30
0.0
 10
4.294838656329035
 20
1.639727620685882
 30
0.0
 10
4.306822529674494
 20
1.633131429148898
 30
0.0
 10
4.331709863422693
 20
1.622036172358904
 30
0.0
 10
4.34452519614484
 20
1.617619979180476
 30
0.0
 10
4.383029157128286
 20
1.606829727193382
 30
0.0
 10
4.409113309948481
 20
1.602726005393957
 30
0.0
 10
4.46170954634671
 20
1.597705800659992
 30
0.0
 10
4.488263515811123
 20
1.596856649153657
 30
0.0
 10
4.514762582550229
 20
1.596856649153663
 30
0.0
  0
LINE
  5
100
330
1F
100
AcDbEntity
  8
0
  6
Continuous
 62
     7
370
    15
100
AcDbLine
 10
3.9663485286
 20
1.5968566492
 30
0.0
 11
4.5147625826
 21
1.5968566492
 31
0.0
  0
SPLINE
  5
101
330
1F
100
AcDbEntity
  8
0
  6
Continuous
 62
     7
370
    15
100
AcDbSpline
210
0.0
220
0.0
230
1.0
 70
     8
 71
     3
 72
    22
 73
    18
 74
     0
 42
0.00000001
 43
0.00000001
 40
0.0
 40
0.0
 40
0.0
 40
0.0
 40
0.2499999999999998
 40
0.2499999999999998
 40
0.3749999999999998
 40
0.3749999999999998
 40
0.4999999999999997
 40
0.4999999999999997
 40
0.6249999999999996
 40
0.6249999999999996
 40
0.7499999999999996
 40
0.7499999999999996
 40
0.8749999999999994
 40
0.8749999999999994
 40
0.9374999999999997
 40
0.9374999999999997
 40
1.0
 40
1.0
 40
1.0
 40
1.0
 10
5.066348528561172
 20
1.596856649153663
 30
0.0
 10
5.092852917254636
 20
1.596856649153663
 30
0.0
 10
5.119394645008088
 20
1.597698835596697
 30
0.0
 10
5.159069569378357
 20
1.601495209997531
 30
0.0
 10
5.172249249409612
 20
1.603184739340991
 30
0.0
 10
5.1984846638509
 20
1.607724236252965
 30
0.0
 10
5.211572484673503
 20
1.610582036042605
 30
0.0
 10
5.23725956885409
 20
1.617838504100189
 30
0.0
 10
5.249887989501404
 20
1.622228801593077
 30
0.0
 10
5.274510764584757
 20
1.633255563612416
 30
0.0
 10
5.286632994125308
 20
1.639950990600518
 30
0.0
 10
5.308995417951671
 20
1.656621579659544
 30
0.0
 10
5.31935894325875
 20
1.66665888468095
 30
0.0
 10
5.331256663057159
 20
1.685119710663331
 30
0.0
 10
5.334622489659378
 20
1.691932933105898
 30
0.0
 10
5.339257740327647
 20
1.706339425490482
 30
0.0
 10
5.34055555555563
 20
1.714069746589088
 30
0.0
 10
5.34055555555563
 20
1.721856649153654
 30
0.0
  0
LINE
  5
102
330
1F
100
AcDbEntity
  8
0
  6
Continuous
 62
     7
370
    15
100
AcDbLine
 10
4.7905555556
 20
1.5968566492
 30
0.0
 11
5.0663485286
 21
1.5968566492
 31
0.0
  0
LINE
  5
103
330
1F
100
AcDbEntity
  8
0
  6
Continuous
 62
     7
370
    15
100
AcDbLine
 10
4.5147625826
 20
1.5968566492
 30
0.0
 11
4.7905555556
 21
1.5968566492
 31
0.0
  0
LINE
  5
104
330
1F
100
AcDbEntity
  8
0
  6
Continuous
 62
     7
370
    15
100
AcDbLine
 10
4.5147625825
 20
3.2668566492
 30
0.0
 11
4.7905555556
 21
3.2668566492
 31
0.0
  0
LINE
  5
105
330
1F
100
AcDbEntity
  8
0
  6
Continuous
 62
     7
370
    15
100
AcDbLine
 10
4.7905555556
 20
3.2668566492
 30
0.0
 11
5.0663485286
 21
3.2668566492
 31
0.0
  0
SPLINE
  5
106
330
1F
100
AcDbEntity
  8
0
  6
Continuous
 62
     7
370
    15
100
AcDbSpline
210
0.0
220
0.0
230
1.0
 70
     8
 71
     3
 72
    22
 73
    18
 74
     0
 42
0.00000001
 43
0.00000001
 40
0.0
 40
0.0
 40
0.0
 40
0.0
 40
0.0624999999999998
 40
0.0624999999999998
 40
0.1249999999999996
 40
0.1249999999999996
 40
0.1874999999999994
 40
0.1874999999999994
 40
0.2499999999999993
 40
0.2499999999999993
 40
0.3749999999999992
 40
0.3749999999999992
 40
0.4999999999999992
 40
0.4999999999999992
 40
0.7499999999999996
 40
0.7499999999999996
 40
1.0
 40
1.0
 40
1.0
 40
1.0
 10
5.340555555555555
 20
3.141856649153662
 30
0.0
 10
5.340555555555555
 20
3.149682740452372
 30
0.0
 10
5.339290281465837
 20
3.157277861804715
 30
0.0
 10
5.33458011986258
 20
3.171906913252297
 30
0.0
 10
5.331231068212412
 20
3.178657014893701
 30
0.0
 10
5.323168755041118
 20
3.191118750951365
 30
0.0
 10
5.318565475074339
 20
3.196679418769125
 30
0.0
 10
5.3085578530075
 20
3.206862369384012
 30
0.0
 10
5.303111760976543
 20
3.211499583458914
 30
0.0
 10
5.28627245478215
 20
3.223985677621396
 30
0.0
 10
5.274288581436704
 20
3.23058186915838
 30
0.0
 10
5.249401247688533
 20
3.241677125948376
 30
0.0
 10
5.236585914966399
 20
3.246093319126808
 30
0.0
 10
5.198081953982991
 20
3.256883571113909
 30
0.0
 10
5.171997801162823
 20
3.260987292913341
 30
0.0
 10
5.119401564764645
 20
3.26600749764732
 30
0.0
 10
5.092847595300257
 20
3.266856649153663
 30
0.0
 10
5.066348528561176
 20
3.266856649153663
 30
0.0
  0
LINE
  5
107
330
1F
100
AcDbEntity
  8
0
  6
Continuous
 62
     7
370
    15
100
AcDbLine
 10
5.3405555556
 20
3.1418566492
 30
0.0
 11
5.3405555556
 21
1.7218566492
 31
0.0
  0
SPLINE
  5
108
330
1F
100
AcDbEntity
  8
0
  6
Continuous
 62
     7
370
    15
100
AcDbSpline
210
0.0
220
0.0
230
1.0
 70
     8
 71
     3
 72
    22
 73
    18
 74
     0
 42
0.00000001
 43
0.00000001
 40
0.0
 40
0.0
 40
0.0
 40
0.0
 40
0.2499999999999987
 40
0.2499999999999987
 40
0.4999999999999973
 40
0.4999999999999973
 40
0.6249999999999969
 40
0.6249999999999969
 40
0.7499999999999964
 40
0.7499999999999964
 40
0.8124999999999973
 40
0.8124999999999973
 40
0.8749999999999982
 40
0.8749999999999982
 40
0.9374999999999991
 40
0.9374999999999991
 40
1.0
 40
1.0
 40
1.0
 40
1.0
 10
3.956348097582449
 20
6.891856649153663
 30
0.0
 10
3.983345369445769
 20
6.891856649153663
 30
0.0
 10
4.010328908594675
 20
6.892541998382047
 30
0.0
 10
4.064233137020019
 20
6.897049302632777
 30
0.0
 10
4.09115542920253
 20
6.900791262513081
 30
0.0
 10
4.131441949568223
 20
6.911241018385248
 30
0.0
 10
4.144831269534747
 20
6.915556045805767
 30
0.0
 10
4.170791759685355
 20
6.926486209295629
 30
0.0
 10
4.183463315030496
 20
6.933133852401967
 30
0.0
 10
4.200951649797162
 20
6.945551046000732
 30
0.0
 10
4.206548644285529
 20
6.950110096849081
 30
0.0
 10
4.217095538959384
 20
6.96039735425563
 30
0.0
 10
4.222065297233638
 20
6.966171528212123
 30
0.0
 10
4.230565886164115
 20
6.978828386156009
 30
0.0
 10
4.234182731270568
 20
6.985873891812364
 30
0.0
 10
4.239147898915877
 20
7.000727504808022
 30
0.0
 10
4.240555555555564
 20
7.008736980577539
 30
0.0
 10
4.240555555555564
 20
7.016856649153665
 30
0.0
  0
LINE
  5
109
330
1F
100
AcDbEntity
  8
0
  6
Continuous
 62
     7
370
    15
100
AcDbLine
 10
3.7305555556
 20
6.8918566492
 30
0.0
 11
3.9563480976
 21
6.8918566492
 31
0.0
  0
LINE
  5
10A
330
1F
100
AcDbEntity
  8
0
  6
Continuous
 62
     7
370
    15
100
AcDbLine
 10
3.5047630135
 20
6.8918566492
 30
0.0
 11
3.7305555556
 21
6.8918566492
 31
0.0
  0
SPLINE
  5
10B
330
1F
100
AcDbEntity
  8
0
  6
Continuous
 62
     7
370
    15
100
AcDbSpline
210
0.0
220
0.0
230
1.0
 70
     8
 71
     3
 72
    22
 73
    18
 74
     0
 42
0.00000001
 43
0.00000001
 40
0.0
 40
0.0
 40
0.0
 40
0.0
 40
0.0625000000000008
 40
0.0625000000000008
 40
0.1250000000000017
 40
0.1250000000000017
 40
0.1875000000000025
 40
0.1875000000000025
 40
0.2500000000000033
 40
0.2500000000000033
 40
0.3750000000000025
 40
0.3750000000000025
 40
0.5000000000000017
 40
0.5000000000000017
 40
0.7500000000000009
 40
0.7500000000000009
 40
1.0
 40
1.0
 40
1.0
 40
1.0
 10
3.220555555555554
 20
7.016856649153665
 30
0.0
 10
3.220555555555554
 20
7.008786136802627
 30
0.0
 10
3.221907334709811
 20
7.000940678862043
 30
0.0
 10
3.226893224634485
 20
6.985933877920686
 30
0.0
 10
3.230446014355195
 20
6.979005481322159
 30
0.0
 10
3.238916160858584
 20
6.966335978669297
 30
0.0
 10
3.243744851272322
 20
6.960697093568278
 30
0.0
 10
3.254235120712666
 20
6.950395674948177
 30
0.0
 10
3.259924272488204
 20
6.945733418850382
 30
0.0
 10
3.277458438936248
 20
6.933238387574666
 30
0.0
 10
3.289924838759394
 20
6.926682755475579
 30
0.0
 10
3.315801851623299
 20
6.915727858353153
 30
0.0
 10
3.329014920446423
 20
6.911445995659398
 30
0.0
 10
3.368818379271506
 20
6.901018860017827
 30
0.0
 10
3.395770330040342
 20
6.897178849113697
 30
0.0
 10
3.450084439131226
 20
6.892564620336117
 30
0.0
 10
3.477467075957569
 20
6.891856649153663
 30
0.0
 10
3.50476301352866
 20
6.891856649153663
 30
0.0
  0
LINE
  5
10C
330
1F
100
AcDbEntity
  8
0
  6
Continuous
 62
     7
370
    15
100
AcDbLine
 10
3.2205555556
 20
7.7668566492
 30
0.0
 11
3.2205555556
 21
7.0168566492
 31
0.0
  0
SPLINE
  5
10D
330
1F
100
AcDbEntity
  8
0
  6
Continuous
 62
     7
370
    15
100
AcDbSpline
210
0.0
220
0.0
230
1.0
 70
     8
 71
     3
 72
    22
 73
    18
 74
     0
 42
0.00000001
 43
0.00000001
 40
0.0
 40
0.0
 40
0.0
 40
0.0
 40
0.2499999999999977
 40
0.2499999999999977
 40
0.4999999999999953
 40
0.4999999999999953
 40
0.6249999999999943
 40
0.6249999999999943
 40
0.7499999999999934
 40
0.7499999999999934
 40
0.8124999999999951
 40
0.8124999999999951
 40
0.8749999999999967
 40
0.8749999999999967
 40
0.9374999999999983
 40
0.9374999999999983
 40
1.0
 40
1.0
 40
1.0
 40
1.0
 10
3.50476301352866
 20
7.891856649153663
 30
0.0
 10
3.47776574166534
 20
7.891856649153662
 30
0.0
 10
3.450782202516434
 20
7.89117129992528
 30
0.0
 10
3.396877974091091
 20
7.886663995674548
 30
0.0
 10
3.36995568190858
 20
7.882922035794246
 30
0.0
 10
3.329669161542888
 20
7.872472279922081
 30
0.0
 10
3.316279841576363
 20
7.868157252501561
 30
0.0
 10
3.290319351425755
 20
7.857227089011699
 30
0.0
 10
3.277647796080614
 20
7.85057944590536
 30
0.0
 10
3.260159461313949
 20
7.838162252306593
 30
0.0
 10
3.254562466825581
 20
7.833603201458246
 30
0.0
 10
3.244015572151725
 20
7.823315944051696
 30
0.0
 10
3.239045813877471
 20
7.817541770095206
 30
0.0
 10
3.230545224946994
 20
7.804884912151319
 30
0.0
 10
3.22692837984054
 20
7.797839406494964
 30
0.0
 10
3.221963212195231
 20
7.782985793499305
 30
0.0
 10
3.220555555555544
 20
7.774976317729791
 30
0.0
 10
3.220555555555544
 20
7.766856649153664
 30
0.0
  0
LINE
  5
10E
330
1F
100
AcDbEntity
  8
0
  6
Continuous
 62
     7
370
    15
100
AcDbLine
 10
3.5047630135
 20
7.8918566492
 30
0.0
 11
3.9563480976
 21
7.8918566492
 31
0.0
  0
SPLINE
  5
10F
330
1F
100
AcDbEntity
  8
0
  6
Continuous
 62
     7
370
    15
100
AcDbSpline
210
0.0
220
0.0
230
1.0
 70
     8
 71
     3
 72
    22
 73
    18
 74
     0
 42
0.00000001
 43
0.00000001
 40
0.0
 40
0.0
 40
0.0
 40
0.0
 40
0.0624999999999998
 40
0.0624999999999998
 40
0.1249999999999997
 40
0.1249999999999997
 40
0.1874999999999996
 40
0.1874999999999996
 40
0.2499999999999994
 40
0.2499999999999994
 40
0.3749999999999996
 40
0.3749999999999996
 40
0.4999999999999997
 40
0.4999999999999997
 40
0.7499999999999998
 40
0.7499999999999998
 40
1.0
 40
1.0
 40
1.0
 40
1.0
 10
4.240555555555554
 20
7.766856649153663
 30
0.0
 10
4.240555555555554
 20
7.774927161504699
 30
0.0
 10
4.239203776401297
 20
7.782772619445287
 30
0.0
 10
4.234217886476623
 20
7.79777942038664
 30
0.0
 10
4.230665096755912
 20
7.804707816985168
 30
0.0
 10
4.222194950252523
 20
7.817377319638031
 30
0.0
 10
4.217366259838784
 20
7.82301620473905
 30
0.0
 10
4.206875990398442
 20
7.833317623359149
 30
0.0
 10
4.201186838622904
 20
7.837979879456944
 30
0.0
 10
4.183652672174861
 20
7.850474910732661
 30
0.0
 10
4.171186272351713
 20
7.857030542831747
 30
0.0
 10
4.145309259487808
 20
7.867985439954173
 30
0.0
 10
4.132096190664685
 20
7.87226730264793
 30
0.0
 10
4.092292731839602
 20
7.882694438289502
 30
0.0
 10
4.065340781070765
 20
7.886534449193629
 30
0.0
 10
4.011026671979881
 20
7.891148677971207
 30
0.0
 10
3.983644035153539
 20
7.891856649153662
 30
0.0
 10
3.956348097582448
 20
7.891856649153663
 30
0.0
  0
LINE
  5
110
330
1F
100
AcDbEntity
  8
0
  6
Continuous
 62
     7
370
    15
100
AcDbLine
 10
4.2405555556
 20
7.7668566492
 30
0.0
 11
4.2405555556
 21
7.0168566492
 31
0.0
  0
LINE
  5
111
330
1F
100
AcDbEntity
  8
0
  6
Continuous
 62
     7
370
    15
100
AcDbLine
 10
3.9563480976
 20
7.8918566492
 30
0.0
 11
4.5247630135
 21
7.8918566492
 31
0.0
  0
SPLINE
  5
112
330
1F
100
AcDbEntity
  8
0
  6
Continuous
 62
     7
370
    15
100
AcDbSpline
210
0.0
220
0.0
230
1.0
 70
     8
 71
     3
 72
    22
 73
    18
 74
     0
 42
0.00000001
 43
0.00000001
 40
0.0
 40
0.0
 40
0.0
 40
0.0
 40
0.2499999999999978
 40
0.2499999999999978
 40
0.4999999999999957
 40
0.4999999999999957
 40
0.6249999999999948
 40
0.6249999999999948
 40
0.7499999999999938
 40
0.7499999999999938
 40
0.8124999999999954
 40
0.8124999999999954
 40
0.874999999999997
 40
0.874999999999997
 40
0.9374999999999986
 40
0.9374999999999986
 40
1.0
 40
1.0
 40
1.0
 40
1.0
 10
4.524763013528659
 20
7.891856649153663
 30
0.0
 10
4.497765741665339
 20
7.891856649153661
 30
0.0
 10
4.470782202516434
 20
7.891171299925281
 30
0.0
 10
4.416877974091091
 20
7.886663995674548
 30
0.0
 10
4.38995568190858
 20
7.882922035794247
 30
0.0
 10
4.349669161542888
 20
7.872472279922079
 30
0.0
 10
4.336279841576363
 20
7.86815725250156
 30
0.0
 10
4.310319351425756
 20
7.8572270890117
 30
0.0
 10
4.297647796080613
 20
7.850579445905359
 30
0.0
 10
4.280159461313948
 20
7.838162252306595
 30
0.0
 10
4.274562466825581
 20
7.833603201458246
 30
0.0
 10
4.264015572151725
 20
7.823315944051696
 30
0.0
 10
4.259045813877471
 20
7.817541770095206
 30
0.0
 10
4.250545224946994
 20
7.804884912151323
 30
0.0
 10
4.24692837984054
 20
7.797839406494964
 30
0.0
 10
4.241963212195231
 20
7.782985793499305
 30
0.0
 10
4.240555555555544
 20
7.77497631772979
 30
0.0
 10
4.240555555555544
 20
7.766856649153664
 30
0.0
  0
SPLINE
  5
113
330
1F
100
AcDbEntity
  8
0
  6
Continuous
 62
     7
370
    15
100
AcDbSpline
210
0.0
220
0.0
230
1.0
 70
     8
 71
     3
 72
    22
 73
    18
 74
     0
 42
0.00000001
 43
0.00000001
 40
0.0
 40
0.0
 40
0.0
 40
0.0
 40
0.0625
 40
0.0625
 40
0.1250000000000001
 40
0.1250000000000001
 40
0.1875000000000001
 40
0.1875000000000001
 40
0.2500000000000001
 40
0.2500000000000001
 40
0.3750000000000001
 40
0.3750000000000001
 40
0.5000000000000001
 40
0.5000000000000001
 40
0.7500000000000001
 40
0.7500000000000001
 40
1.0
 40
1.0
 40
1.0
 40
1.0
 10
4.240555555555554
 20
7.016856649153665
 30
0.0
 10
4.240555555555554
 20
7.008786136802627
 30
0.0
 10
4.241907334709812
 20
7.000940678862043
 30
0.0
 10
4.246893224634485
 20
6.985933877920685
 30
0.0
 10
4.250446014355196
 20
6.979005481322159
 30
0.0
 10
4.258916160858584
 20
6.966335978669298
 30
0.0
 10
4.263744851272323
 20
6.960697093568278
 30
0.0
 10
4.274235120712667
 20
6.950395674948178
 30
0.0
 10
4.279924272488204
 20
6.945733418850382
 30
0.0
 10
4.297458438936247
 20
6.933238387574664
 30
0.0
 10
4.309924838759394
 20
6.926682755475579
 30
0.0
 10
4.3358018516233
 20
6.915727858353152
 30
0.0
 10
4.349014920446423
 20
6.911445995659398
 30
0.0
 10
4.388818379271505
 20
6.901018860017827
 30
0.0
 10
4.415770330040343
 20
6.897178849113699
 30
0.0
 10
4.470084439131227
 20
6.892564620336119
 30
0.0
 10
4.497467075957569
 20
6.891856649153663
 30
0.0
 10
4.52476301352866
 20
6.891856649153663
 30
0.0
  0
LINE
  5
114
330
1F
100
AcDbEntity
  8
0
  6
Continuous
 62
     7
370
    15
100
AcDbLine
 10
3.9563480976
 20
6.8918566492
 30
0.0
 11
4.5247630135
 21
6.8918566492
 31
0.0
  0
SPLINE
  5
115
330
1F
100
AcDbEntity
  8
0
  6
Continuous
 62
     7
370
    15
100
AcDbSpline
210
0.0
220
0.0
230
1.0
 70
     8
 71
     3
 72
    22
 73
    18
 74
     0
 42
0.00000001
 43
0.00000001
 40
0.0
 40
0.0
 40
0.0
 40
0.0
 40
0.2500000000000009
 40
0.2500000000000009
 40
0.5000000000000018
 40
0.5000000000000018
 40
0.6250000000000022
 40
0.6250000000000022
 40
0.7500000000000027
 40
0.7500000000000027
 40
0.812500000000002
 40
0.812500000000002
 40
0.8750000000000013
 40
0.8750000000000013
 40
0.9375000000000007
 40
0.9375000000000007
 40
1.0
 40
1.0
 40
1.0
 40
1.0
 10
4.976348097582449
 20
6.891856649153663
 30
0.0
 10
5.003345369445769
 20
6.891856649153663
 30
0.0
 10
5.030328908594676
 20
6.892541998382047
 30
0.0
 10
5.08423313702002
 20
6.897049302632777
 30
0.0
 10
5.111155429202531
 20
6.900791262513081
 30
0.0
 10
5.151441949568225
 20
6.911241018385248
 30
0.0
 10
5.16483126953475
 20
6.915556045805765
 30
0.0
 10
5.190791759685356
 20
6.926486209295629
 30
0.0
 10
5.203463315030497
 20
6.933133852401966
 30
0.0
 10
5.220951649797162
 20
6.945551046000732
 30
0.0
 10
5.226548644285529
 20
6.950110096849081
 30
0.0
 10
5.237095538959386
 20
6.960397354255632
 30
0.0
 10
5.24206529723364
 20
6.966171528212124
 30
0.0
 10
5.250565886164116
 20
6.978828386156007
 30
0.0
 10
5.25418273127057
 20
6.985873891812365
 30
0.0
 10
5.259147898915879
 20
7.000727504808022
 30
0.0
 10
5.260555555555565
 20
7.008736980577538
 30
0.0
 10
5.260555555555564
 20
7.016856649153665
 30
0.0
  0
LINE
  5
116
330
1F
100
AcDbEntity
  8
0
  6
Continuous
 62
     7
370
    15
100
AcDbLine
 10
4.7505555556
 20
6.8918566492
 30
0.0
 11
4.9763480976
 21
6.8918566492
 31
0.0
  0
LINE
  5
117
330
1F
100
AcDbEntity
  8
0
  6
Continuous
 62
     7
370
    15
100
AcDbLine
 10
4.5247630135
 20
6.8918566492
 30
0.0
 11
4.7505555556
 21
6.8918566492
 31
0.0
  0
LINE
  5
118
330
1F
100
AcDbEntity
  8
0
  6
Continuous
 62
     7
370
    15
100
AcDbLine
 10
4.5247630135
 20
7.8918566492
 30
0.0
 11
4.9763480976
 21
7.8918566492
 31
0.0
  0
SPLINE
  5
119
330
1F
100
AcDbEntity
  8
0
  6
Continuous
 62
     7
370
    15
100
AcDbSpline
210
0.0
220
0.0
230
1.0
 70
     8
 71
     3
 72
    22
 73
    18
 74
     0
 42
0.00000001
 43
0.00000001
 40
0.0
 40
0.0
 40
0.0
 40
0.0
 40
0.0625000000000001
 40
0.0625000000000001
 40
0.1250000000000002
 40
0.1250000000000002
 40
0.1875000000000003
 40
0.1875000000000003
 40
0.2500000000000004
 40
0.2500000000000004
 40
0.3750000000000007
 40
0.3750000000000007
 40
0.5000000000000009
 40
0.5000000000000009
 40
0.7500000000000004
 40
0.7500000000000004
 40
1.0
 40
1.0
 40
1.0
 40
1.0
 10
5.260555555555555
 20
7.766856649153663
 30
0.0
 10
5.260555555555555
 20
7.7749271615047
 30
0.0
 10
5.259203776401297
 20
7.782772619445287
 30
0.0
 10
5.254217886476622
 20
7.797779420386643
 30
0.0
 10
5.250665096755913
 20
7.804707816985169
 30
0.0
 10
5.242194950252524
 20
7.817377319638031
 30
0.0
 10
5.237366259838785
 20
7.82301620473905
 30
0.0
 10
5.226875990398441
 20
7.833317623359149
 30
0.0
 10
5.221186838622904
 20
7.837979879456945
 30
0.0
 10
5.203652672174861
 20
7.850474910732661
 30
0.0
 10
5.191186272351715
 20
7.857030542831747
 30
0.0
 10
5.165309259487809
 20
7.867985439954175
 30
0.0
 10
5.152096190664685
 20
7.872267302647932
 30
0.0
 10
5.112292731839602
 20
7.8826944382895
 30
0.0
 10
5.085340781070766
 20
7.886534449193627
 30
0.0
 10
5.031026671979881
 20
7.891148677971208
 30
0.0
 10
5.00364403515354
 20
7.891856649153662
 30
0.0
 10
4.976348097582448
 20
7.891856649153663
 30
0.0
  0
LINE
  5
11A
330
1F
100
AcDbEntity
  8
0
  6
Continuous
 62
     7
370
    15
100
AcDbLine
 10
5.2605555556
 20
7.7668566492
 30
0.0
 11
5.2605555556
 21
7.0168566492
 31
0.0
  0
LINE
  5
11B
330
1F
100
AcDbEntity
  8
0
  6
Continuous
 62
     7
370
    15
100
AcDbLine
 10
3.1405555556
 20
4.4368566492
 30
0.0
 11
5.3405555556
 21
4.4368566492
 31
0.0
  0
LINE
  5
11C
330
1F
100
AcDbEntity
  8
0
  6
Continuous
 62
     7
370
    15
100
AcDbLine
 10
5.3405555556
 20
0.2468566492
 30
0.0
 11
3.1405555556
 21
0.2468566492
 31
0.0
  0
LINE
  5
11D
330
1F
100
AcDbEntity
  8
0
  6
Continuous
 62
     7
370
    15
100
AcDbLine
 10
5.1905555556
 20
0.0968566492
 30
0.0
 11
3.2905555556
 21
0.0968566492
 31
0.0
  0
LINE
  5
11E
330
1F
100
AcDbEntity
  8
0
  6
Continuous
 62
     7
370
    15
100
AcDbLine
 10
3.2205555556
 20
4.5168566492
 30
0.0
 11
5.2605555556
 21
4.5168566492
 31
0.0
  0
SPLINE
  5
11F
330
1F
100
AcDbEntity
  8
0
  6
Continuous
 62
     7
370
    15
100
AcDbSpline
210
0.0
220
0.0
230
1.0
 70
    24
 71
     3
 72
    24
 73
    20
 74
     0
 42
0.00000001
 43
0.00000001
 40
0.0
 40
0.0
 40
0.0
 40
0.0
 40
0.2500000000000002
 40
0.2500000000000002
 40
0.3750000000000002
 40
0.3750000000000002
 40
0.5000000000000003
 40
0.5000000000000003
 40
0.6250000000000004
 40
0.6250000000000004
 40
0.7500000000000004
 40
0.7500000000000004
 40
0.8125000000000006
 40
0.8125000000000006
 40
0.8750000000000006
 40
0.8750000000000006
 40
0.9375000000000003
 40
0.9375000000000003
 40
1.0
 40
1.0
 40
1.0
 40
1.0
 10
3.140555555555554
 20
1.596856649153663
 30
0.0
 10
3.140555555555554
 20
1.596856649153663
 30
0.0
 10
3.140555555555554
 20
1.597699221930662
 30
0.0
 10
3.140555555555554
 20
1.601477050152223
 30
0.0
 10
3.140555555555554
 20
1.60315919699914
 30
0.0
 10
3.140555555555554
 20
1.60769372524135
 30
0.0
 10
3.140555555555554
 20
1.610547561458343
 30
0.0
 10
3.140555555555554
 20
1.617820261865522
 30
0.0
 10
3.140555555555554
 20
1.622249044669589
 30
0.0
 10
3.140555555555554
 20
1.633378292593454
 30
0.0
 10
3.140555555555554
 20
1.63997468183552
 30
0.0
 10
3.140555555555554
 20
1.652330425194356
 30
0.0
 10
3.140555555555554
 20
1.656863740382039
 30
0.0
 10
3.140555555555554
 20
1.667115378926737
 30
0.0
 10
3.140555555555554
 20
1.672747963479433
 30
0.0
 10
3.140555555555554
 20
1.685166198231603
 30
0.0
 10
3.140555555555554
 20
1.69197502663984
 30
0.0
 10
3.140555555555554
 20
1.706378260881116
 30
0.0
 10
3.140555555555554
 20
1.714186964719959
 30
0.0
 10
3.140555555555554
 20
1.721856649153664
 30
0.0
  0
LINE
  5
120
330
1F
100
AcDbEntity
  8
0
  6
Continuous
 62
     7
370
    15
100
AcDbLine
 10
3.1405555556
 20
1.5968566492
 30
0.0
 11
3.4147625825
 21
1.5968566492
 31
0.0
  0
SPLINE
  5
121
330
1F
100
AcDbEntity
  8
0
  6
Continuous
 62
     7
370
    15
100
AcDbSpline
210
0.0
220
0.0
230
1.0
 70
    24
 71
     3
 72
    24
 73
    20
 74
     0
 42
0.00000001
 43
0.00000001
 40
0.0
 40
0.0
 40
0.0
 40
0.0
 40
0.2500000000000004
 40
0.2500000000000004
 40
0.3750000000000003
 40
0.3750000000000003
 40
0.5000000000000002
 40
0.5000000000000002
 40
0.6250000000000001
 40
0.6250000000000001
 40
0.75
 40
0.75
 40
0.8125
 40
0.8125
 40
0.875
 40
0.875
 40
0.9375
 40
0.9375
 40
1.0
 40
1.0
 40
1.0
 40
1.0
 10
5.340555555555555
 20
3.266856649153663
 30
0.0
 10
5.340555555555555
 20
3.266856649153663
 30
0.0
 10
5.340555555555555
 20
3.266014076376664
 30
0.0
 10
5.340555555555555
 20
3.262236248155103
 30
0.0
 10
5.340555555555555
 20
3.260554101308186
 30
0.0
 10
5.340555555555555
 20
3.256019573065976
 30
0.0
 10
5.340555555555555
 20
3.253165736848983
 30
0.0
 10
5.340555555555555
 20
3.245893036441803
 30
0.0
 10
5.340555555555555
 20
3.241464253637737
 30
0.0
 10
5.340555555555555
 20
3.230335005713872
 30
0.0
 10
5.340555555555555
 20
3.223738616471805
 30
0.0
 10
5.340555555555555
 20
3.211382873112969
 30
0.0
 10
5.340555555555555
 20
3.206849557925286
 30
0.0
 10
5.340555555555555
 20
3.196597919380589
 30
0.0
 10
5.340555555555555
 20
3.190965334827893
 30
0.0
 10
5.340555555555555
 20
3.178547100075721
 30
0.0
 10
5.340555555555555
 20
3.171738271667486
 30
0.0
 10
5.340555555555555
 20
3.157335037426209
 30
0.0
 10
5.340555555555555
 20
3.149526333587366
 30
0.0
 10
5.340555555555555
 20
3.141856649153662
 30
0.0
  0
LINE
  5
122
330
1F
100
AcDbEntity
  8
0
  6
Continuous
 62
     7
370
    15
100
AcDbLine
 10
5.0663485286
 20
3.2668566492
 30
0.0
 11
5.3405555556
 21
3.2668566492
 31
0.0
  0
SPLINE
  5
123
330
1F
100
AcDbEntity
  8
0
  6
Continuous
 62
     7
370
    15
100
AcDbSpline
210
0.0
220
0.0
230
1.0
 70
    24
 71
     3
 72
    22
 73
    18
 74
     0
 42
0.00000001
 43
0.00000001
 40
0.0
 40
0.0
 40
0.0
 40
0.0
 40
0.0625000000000002
 40
0.0625000000000002
 40
0.1250000000000005
 40
0.1250000000000005
 40
0.1875000000000007
 40
0.1875000000000007
 40
0.2500000000000009
 40
0.2500000000000009
 40
0.3750000000000008
 40
0.3750000000000008
 40
0.5000000000000007
 40
0.5000000000000007
 40
0.7500000000000003
 40
0.7500000000000003
 40
1.0
 40
1.0
 40
1.0
 40
1.0
 10
3.140555555555554
 20
3.141856649153662
 30
0.0
 10
3.140555555555554
 20
3.149636651549674
 30
0.0
 10
3.140555555555554
 20
3.157306806901136
 30
0.0
 10
3.140555555555554
 20
3.17187014639185
 30
0.0
 10
3.140555555555554
 20
3.178673232218277
 30
0.0
 10
3.140555555555554
 20
3.191075597124277
 30
0.0
 10
3.140555555555554
 20
3.196639014337964
 30
0.0
 10
3.140555555555554
 20
3.206851748596133
 30
0.0
 10
3.140555555555554
 20
3.211479279582167
 30
0.0
 10
3.140555555555554
 20
3.223935619233646
 30
0.0
 10
3.140555555555554
 20
3.230556547058437
 30
0.0
 10
3.140555555555554
 20
3.241690766952301
 30
0.0
 10
3.140555555555554
 20
3.246058046914047
 30
0.0
 10
3.140555555555554
 20
3.25684291084897
 30
0.0
 10
3.140555555555554
 20
3.260969480551522
 30
0.0
 10
3.140555555555554
 20
3.266011452475803
 30
0.0
 10
3.140555555555554
 20
3.266856649153663
 30
0.0
 10
3.140555555555554
 20
3.266856649153663
 30
0.0
  0
LINE
  5
124
330
1F
100
AcDbEntity
  8
0
  6
Continuous
 62
     7
370
    15
100
AcDbLine
 10
3.1405555556
 20
3.2668566492
 30
0.0
 11
3.4147625825
 21
3.2668566492
 31
0.0
  0
SPLINE
  5
125
330
1F
100
AcDbEntity
  8
0
  6
Continuous
 62
     7
370
    15
100
AcDbSpline
210
0.0
220
0.0
230
1.0
 70
    24
 71
     3
 72
    22
 73
    18
 74
     0
 42
0.00000001
 43
0.00000001
 40
0.0
 40
0.0
 40
0.0
 40
0.0
 40
0.0625000000000002
 40
0.0625000000000002
 40
0.1250000000000003
 40
0.1250000000000003
 40
0.1875000000000005
 40
0.1875000000000005
 40
0.2500000000000007
 40
0.2500000000000007
 40
0.3750000000000004
 40
0.3750000000000004
 40
0.5000000000000001
 40
0.5000000000000001
 40
0.7500000000000001
 40
0.7500000000000001
 40
1.0
 40
1.0
 40
1.0
 40
1.0
 10
5.340555555555555
 20
1.721856649153664
 30
0.0
 10
5.340555555555555
 20
1.714076646757653
 30
0.0
 10
5.340555555555555
 20
1.706406491406188
 30
0.0
 10
5.340555555555555
 20
1.691843151915476
 30
0.0
 10
5.340555555555555
 20
1.685040066089049
 30
0.0
 10
5.340555555555555
 20
1.67263770118305
 30
0.0
 10
5.340555555555555
 20
1.667074283969363
 30
0.0
 10
5.340555555555555
 20
1.656861549711194
 30
0.0
 10
5.340555555555555
 20
1.65223401872516
 30
0.0
 10
5.340555555555555
 20
1.639777679073681
 30
0.0
 10
5.340555555555555
 20
1.633156751248888
 30
0.0
 10
5.340555555555555
 20
1.622022531355025
 30
0.0
 10
5.340555555555555
 20
1.617655251393279
 30
0.0
 10
5.340555555555555
 20
1.606870387458356
 30
0.0
 10
5.340555555555555
 20
1.602743817755804
 30
0.0
 10
5.340555555555555
 20
1.597701845831523
 30
0.0
 10
5.340555555555555
 20
1.596856649153663
 30
0.0
 10
5.340555555555555
 20
1.596856649153663
 30
0.0
  0
LINE
  5
126
330
1F
100
AcDbEntity
  8
0
  6
Continuous
 62
     7
370
    15
100
AcDbLine
 10
5.0663485286
 20
1.5968566492
 30
0.0
 11
5.3405555556
 21
1.5968566492
 31
0.0
  0
SPLINE
  5
127
330
1F
100
AcDbEntity
  8
0
  6
Continuous
 62
     7
370
    15
100
AcDbSpline
210
0.0
220
0.0
230
1.0
 70
    24
 71
     3
 72
    20
 73
    16
 74
     0
 42
0.00000001
 43
0.00000001
 40
0.0
 40
0.0
 40
0.0
 40
0.0
 40
0.2500000000000005
 40
0.2500000000000005
 40
0.500000000000001
 40
0.500000000000001
 40
0.6250000000000014
 40
0.6250000000000014
 40
0.750000000000002
 40
0.750000000000002
 40
0.8750000000000024
 40
0.8750000000000024
 40
0.9375000000000012
 40
0.9375000000000012
 40
1.0
 40
1.0
 40
1.0
 40
1.0
 10
3.220555555555555
 20
6.891856649153663
 30
0.0
 10
3.220555555555555
 20
6.891856649153663
 30
0.0
 10
3.220555555555555
 20
6.892558243973673
 30
0.0
 10
3.220555555555555
 20
6.897101823726671
 30
0.0
 10
3.220555555555555
 20
6.900879434050593
 30
0.0
 10
3.220555555555555
 20
6.911169467676949
 30
0.0
 10
3.220555555555555
 20
6.915376607587814
 30
0.0
 10
3.220555555555555
 20
6.926270217975489
 30
0.0
 10
3.220555555555555
 20
6.932898476487308
 30
0.0
 10
3.220555555555555
 20
6.949714917632615
 30
0.0
 10
3.220555555555555
 20
6.959699842609714
 30
0.0
 10
3.220555555555554
 20
6.978887034054323
 30
0.0
 10
3.220555555555555
 20
6.985778532376062
 30
0.0
 10
3.220555555555555
 20
7.000922899765054
 30
0.0
 10
3.220555555555555
 20
7.008760317237672
 30
0.0
 10
3.220555555555555
 20
7.016856649153665
 30
0.0
  0
LINE
  5
128
330
1F
100
AcDbEntity
  8
0
  6
Continuous
 62
     7
370
    15
100
AcDbLine
 10
3.2205555556
 20
6.8918566492
 30
0.0
 11
3.5047630135
 21
6.8918566492
 31
0.0
  0
SPLINE
  5
129
330
1F
100
AcDbEntity
  8
0
  6
Continuous
 62
     7
370
    15
100
AcDbSpline
210
0.0
220
0.0
230
1.0
 70
    24
 71
     3
 72
    20
 73
    16
 74
     0
 42
0.00000001
 43
0.00000001
 40
0.0
 40
0.0
 40
0.0
 40
0.0
 40
0.2500000000000008
 40
0.2500000000000008
 40
0.5000000000000016
 40
0.5000000000000016
 40
0.6250000000000012
 40
0.6250000000000012
 40
0.750000000000001
 40
0.750000000000001
 40
0.8750000000000007
 40
0.8750000000000007
 40
0.9375000000000003
 40
0.9375000000000003
 40
1.0
 40
1.0
 40
1.0
 40
1.0
 10
5.260555555555555
 20
7.891856649153663
 30
0.0
 10
5.260555555555555
 20
7.891856649153662
 30
0.0
 10
5.260555555555555
 20
7.891155054333653
 30
0.0
 10
5.260555555555555
 20
7.886611474580651
 30
0.0
 10
5.260555555555555
 20
7.882833864256735
 30
0.0
 10
5.260555555555555
 20
7.872543830630378
 30
0.0
 10
5.260555555555555
 20
7.868336690719512
 30
0.0
 10
5.260555555555555
 20
7.857443080331837
 30
0.0
 10
5.260555555555555
 20
7.85081482182002
 30
0.0
 10
5.260555555555555
 20
7.833998380674709
 30
0.0
 10
5.260555555555555
 20
7.824013455697608
 30
0.0
 10
5.260555555555555
 20
7.804826264253005
 30
0.0
 10
5.260555555555555
 20
7.797934765931267
 30
0.0
 10
5.260555555555555
 20
7.782790398542276
 30
0.0
 10
5.260555555555555
 20
7.774952981069656
 30
0.0
 10
5.260555555555555
 20
7.766856649153663
 30
0.0
  0
LINE
  5
12A
330
1F
100
AcDbEntity
  8
0
  6
Continuous
 62
     7
370
    15
100
AcDbLine
 10
4.9763480976
 20
7.8918566492
 30
0.0
 11
5.2605555556
 21
7.8918566492
 31
0.0
  0
SPLINE
  5
12B
330
1F
100
AcDbEntity
  8
0
  6
Continuous
 62
     7
370
    15
100
AcDbSpline
210
0.0
220
0.0
230
1.0
 70
    24
 71
     3
 72
    24
 73
    20
 74
     0
 42
0.00000001
 43
0.00000001
 40
0.0
 40
0.0
 40
0.0
 40
0.0
 40
0.0312499999999999
 40
0.0312499999999999
 40
0.0624999999999998
 40
0.0624999999999998
 40
0.1249999999999997
 40
0.1249999999999997
 40
0.1874999999999995
 40
0.1874999999999995
 40
0.2499999999999993
 40
0.2499999999999993
 40
0.3749999999999994
 40
0.3749999999999994
 40
0.4999999999999996
 40
0.4999999999999996
 40
0.7499999999999998
 40
0.7499999999999998
 40
1.0
 40
1.0
 40
1.0
 40
1.0
 10
3.220555555555555
 20
7.766856649153662
 30
0.0
 10
3.220555555555555
 20
7.770863980884902
 30
0.0
 10
3.220555555555555
 20
7.774918959908908
 30
0.0
 10
3.220555555555555
 20
7.782767231814609
 30
0.0
 10
3.220555555555555
 20
7.786604465531676
 30
0.0
 10
3.220555555555555
 20
7.797875032286377
 30
0.0
 10
3.220555555555555
 20
7.804778502492178
 30
0.0
 10
3.220555555555555
 20
7.817430004659006
 30
0.0
 10
3.220555555555555
 20
7.823172293105322
 30
0.0
 10
3.220555555555555
 20
7.833444480568097
 30
0.0
 10
3.220555555555555
 20
7.838046827626354
 30
0.0
 10
3.220555555555555
 20
7.850644363255763
 30
0.0
 10
3.220555555555555
 20
7.857189456930531
 30
0.0
 10
3.220555555555555
 20
7.868054621717118
 30
0.0
 10
3.220555555555555
 20
7.872375387100435
 30
0.0
 10
3.220555555555555
 20
7.882846937225976
 30
0.0
 10
3.220555555555555
 20
7.886620505168458
 30
0.0
 10
3.220555555555555
 20
7.89116355158311
 30
0.0
 10
3.220555555555555
 20
7.891856649153662
 30
0.0
 10
3.220555555555555
 20
7.891856649153663
 30
0.0
  0
LINE
  5
12C
330
1F
100
AcDbEntity
  8
0
  6
Continuous
 62
     7
370
    15
100
AcDbLine
 10
3.2205555556
 20
7.8918566492
 30
0.0
 11
3.5047630135
 21
7.8918566492
 31
0.0
  0
SPLINE
  5
12D
330
1F
100
AcDbEntity
  8
0
  6
Continuous
 62
     7
370
    15
100
AcDbSpline
210
0.0
220
0.0
230
1.0
 70
    24
 71
     3
 72
    24
 73
    20
 74
     0
 42
0.00000001
 43
0.00000001
 40
0.0
 40
0.0
 40
0.0
 40
0.0
 40
0.0312500000000016
 40
0.0312500000000016
 40
0.0625000000000032
 40
0.0625000000000032
 40
0.1250000000000021
 40
0.1250000000000021
 40
0.1875000000000011
 40
0.1875000000000011
 40
0.2500000000000002
 40
0.2500000000000002
 40
0.3749999999999999
 40
0.3749999999999999
 40
0.4999999999999997
 40
0.4999999999999997
 40
0.7499999999999998
 40
0.7499999999999998
 40
1.0
 40
1.0
 40
1.0
 40
1.0
 10
5.260555555555555
 20
7.016856649153666
 30
0.0
 10
5.260555555555555
 20
7.012849317422426
 30
0.0
 10
5.260555555555555
 20
7.008794338398419
 30
0.0
 10
5.260555555555555
 20
7.000946066492717
 30
0.0
 10
5.260555555555555
 20
6.997108832775652
 30
0.0
 10
5.260555555555555
 20
6.985838266020955
 30
0.0
 10
5.260555555555555
 20
6.978934795815149
 30
0.0
 10
5.260555555555555
 20
6.966283293648321
 30
0.0
 10
5.260555555555555
 20
6.960541005202005
 30
0.0
 10
5.260555555555555
 20
6.950268817739231
 30
0.0
 10
5.260555555555555
 20
6.945666470680974
 30
0.0
 10
5.260555555555555
 20
6.933068935051566
 30
0.0
 10
5.260555555555555
 20
6.926523841376796
 30
0.0
 10
5.260555555555555
 20
6.915658676590208
 30
0.0
 10
5.260555555555555
 20
6.911337911206893
 30
0.0
 10
5.260555555555555
 20
6.900866361081349
 30
0.0
 10
5.260555555555555
 20
6.897092793138867
 30
0.0
 10
5.260555555555555
 20
6.892549746724214
 30
0.0
 10
5.260555555555554
 20
6.891856649153661
 30
0.0
 10
5.260555555555555
 20
6.891856649153663
 30
0.0
  0
LINE
  5
12E
330
1F
100
AcDbEntity
  8
0
  6
Continuous
 62
     7
370
    15
100
AcDbLine
 10
4.9763480976
 20
6.8918566492
 30
0.0
 11
5.2605555556
 21
6.8918566492
 31
0.0
  0
SPLINE
  5
12F
330
1F
100
AcDbEntity
  8
0
  6
Continuous
 62
     7
370
    15
100
AcDbSpline
210
0.0
220
0.0
230
1.0
 70
    24
 71
     3
 72
    15
 73
    11
 74
     0
 42
0.00000001
 43
0.00000001
 40
0.0
 40
0.0
 40
0.0
 40
0.0
 40
0.0207548231367883
 40
0.0785374142157359
 40
0.1559081180195384
 40
0.273533781172369
 40
0.4923128701661345
 40
0.7444496693526906
 40
0.9998564342729348
 40
1.0
 40
1.0
 40
1.0
 40
1.0
 10
4.795555555555555
 20
8.198691042489482
 30
0.0
 10
4.795555555555555
 20
8.196137386306734
 30
0.0
 10
4.795555555555555
 20
8.186474208159307
 30
0.0
 10
4.795555555555555
 20
8.167762963945915
 30
0.0
 10
4.795555555555555
 20
8.142209439341565
 30
0.0
 10
4.795555555555555
 20
8.112681693700827
 30
0.0
 10
4.795555555555548
 20
8.091256823413499
 30
0.0
 10
4.795555555555581
 20
8.082024221282708
 30
0.0
 10
4.795555555555496
 20
8.07893455620977
 30
0.0
 10
4.795555555555555
 20
8.079978414282909
 30
0.0
 10
4.795555555555555
 20
8.079979000712372
 30
0.0
  0
SPLINE
  5
130
330
1F
100
AcDbEntity
  8
0
  6
Continuous
 62
     7
370
    15
100
AcDbSpline
210
0.0
220
0.0
230
1.0
 70
    24
 71
     3
 72
    22
 73
    18
 74
     0
 42
0.00000001
 43
0.00000001
 40
0.0
 40
0.0
 40
0.0
 40
0.0
 40
0.2499999999999969
 40
0.2499999999999969
 40
0.4999999999999938
 40
0.4999999999999938
 40
0.6249999999999931
 40
0.6249999999999931
 40
0.7499999999999925
 40
0.7499999999999925
 40
0.8124999999999943
 40
0.8124999999999943
 40
0.8749999999999962
 40
0.8749999999999962
 40
0.9374999999999981
 40
0.9374999999999981
 40
1.0
 40
1.0
 40
1.0
 40
1.0
 10
3.685555555555554
 20
8.079977242281315
 30
0.0
 10
3.685555555555554
 20
8.079977038142728
 30
0.0
 10
3.685555555555554
 20
8.08073349230457
 30
0.0
 10
3.685555555555554
 20
8.084759930562308
 30
0.0
 10
3.685555555555554
 20
8.087980605127191
 30
0.0
 10
3.685555555555554
 20
8.097296385380155
 30
0.0
 10
3.685555555555554
 20
8.101191352671783
 30
0.0
 10
3.685555555555554
 20
8.111242128036105
 30
0.0
 10
3.685555555555554
 20
8.11742296827016
 30
0.0
 10
3.685555555555554
 20
8.129473420136438
 30
0.0
 10
3.685555555555554
 20
8.133914489159586
 30
0.0
 10
3.685555555555555
 20
8.143934791774768
 30
0.0
 10
3.685555555555554
 20
8.14954172363916
 30
0.0
 10
3.685555555555555
 20
8.161821050507124
 30
0.0
 10
3.685555555555554
 20
8.168668201524225
 30
0.0
 10
3.685555555555555
 20
8.183159388779677
 30
0.0
 10
3.685555555555554
 20
8.190971916707785
 30
0.0
 10
3.685555555555554
 20
8.198691042489482
 30
0.0
  0
SPLINE
  5
131
330
1F
100
AcDbEntity
  8
0
  6
Continuous
 62
     7
370
    15
100
AcDbSpline
210
0.0
220
0.0
230
1.0
 70
     8
 71
     3
 72
    40
 73
    36
 74
     0
 42
0.00000001
 43
0.00000001
 40
0.0
 40
0.0
 40
0.0
 40
0.0
 40
0.0312500000000011
 40
0.0312500000000011
 40
0.0625000000000023
 40
0.0625000000000023
 40
0.0937500000000034
 40
0.0937500000000034
 40
0.1250000000000045
 40
0.1250000000000045
 40
0.1875000000000046
 40
0.1875000000000046
 40
0.2500000000000047
 40
0.2500000000000047
 40
0.3750000000000039
 40
0.3750000000000039
 40
0.5000000000000031
 40
0.5000000000000031
 40
0.6250000000000024
 40
0.6250000000000024
 40
0.687500000000002
 40
0.687500000000002
 40
0.7500000000000016
 40
0.7500000000000016
 40
0.8125000000000012
 40
0.8125000000000012
 40
0.8750000000000009
 40
0.8750000000000009
 40
0.9062500000000007
 40
0.9062500000000007
 40
0.9375000000000006
 40
0.9375000000000006
 40
0.9687500000000003
 40
0.9687500000000003
 40
1.0
 40
1.0
 40
1.0
 40
1.0
 10
3.685555555555553
 20
8.198691042489482
 30
0.0
 10
3.685555555555553
 20
8.190819308035643
 30
0.0
 10
3.686836348014097
 20
8.18316966465605
 30
0.0
 10
3.691617174157696
 20
8.168482458274811
 30
0.0
 10
3.695030678627219
 20
8.161706993931924
 30
0.0
 10
3.703256538839902
 20
8.149291462621651
 30
0.0
 10
3.707963187453752
 20
8.143785462327829
 30
0.0
 10
3.718223923149045
 20
8.133775119857411
 30
0.0
 10
3.723806343830623
 20
8.12927142560516
 30
0.0
 10
3.741023087865768
 20
8.117298698051307
 30
0.0
 10
3.753287887488535
 20
8.111146966914191
 30
0.0
 10
3.778758545201143
 20
8.101031921610288
 30
0.0
 10
3.79167062767491
 20
8.097207685238557
 30
0.0
 10
3.830660031912474
 20
8.087976700594682
 30
0.0
 10
3.857023287744246
 20
8.084748224062555
 30
0.0
 10
3.910057748848573
 20
8.080724061444116
 30
0.0
 10
3.936740453634998
 20
8.079970681786467
 30
0.0
 10
3.989996413252201
 20
8.079983880242676
 30
0.0
 10
4.016651903077738
 20
8.08074736820824
 30
0.0
 10
4.056510215312197
 20
8.08380532422948
 30
0.0
 10
4.069771056241399
 20
8.085158050999
 30
0.0
 10
4.096216020433376
 20
8.088875978918244
 30
0.0
 10
4.10940051003511
 20
8.091242072536266
 30
0.0
 10
4.135375188500954
 20
8.097469028042891
 30
0.0
 10
4.148194278051617
 20
8.101321733401932
 30
0.0
 10
4.173296538965549
 20
8.111381772748192
 30
0.0
 10
4.185664752016863
 20
8.117627027329522
 30
0.0
 10
4.202794318971613
 20
8.129650760978476
 30
0.0
 10
4.20830974518865
 20
8.134145763546815
 30
0.0
 10
4.218437477024645
 20
8.144112573833672
 30
0.0
 10
4.223086350978265
 20
8.14959402611672
 30
0.0
 10
4.231215172982745
 20
8.161959801707477
 30
0.0
 10
4.234572308755484
 20
8.168680829384469
 30
0.0
 10
4.239279151114595
 20
8.183226290436586
 30
0.0
 10
4.240555555555555
 20
8.190878109045311
 30
0.0
 10
4.240555555555555
 20
8.198691042489482
 30
0.0
  0
SPLINE
  5
132
330
1F
100
AcDbEntity
  8
0
  6
Continuous
 62
     7
370
    15
100
AcDbSpline
210
0.0
220
0.0
230
1.0
 70
     8
 71
     3
 72
    40
 73
    36
 74
     0
 42
0.00000001
 43
0.00000001
 40
0.0
 40
0.0
 40
0.0
 40
0.0
 40
0.0312500000000014
 40
0.0312500000000014
 40
0.0625000000000027
 40
0.0625000000000027
 40
0.0937500000000041
 40
0.0937500000000041
 40
0.1250000000000054
 40
0.1250000000000054
 40
0.1875000000000055
 40
0.1875000000000055
 40
0.2500000000000056
 40
0.2500000000000056
 40
0.3750000000000047
 40
0.3750000000000047
 40
0.5000000000000037
 40
0.5000000000000037
 40
0.6250000000000028
 40
0.6250000000000028
 40
0.6875000000000022
 40
0.6875000000000022
 40
0.7500000000000018
 40
0.7500000000000018
 40
0.8125000000000012
 40
0.8125000000000012
 40
0.8750000000000008
 40
0.8750000000000008
 40
0.9062500000000006
 40
0.9062500000000006
 40
0.9375000000000003
 40
0.9375000000000003
 40
0.9687500000000002
 40
0.9687500000000002
 40
1.0
 40
1.0
 40
1.0
 40
1.0
 10
4.240555555555554
 20
8.198691042489482
 30
0.0
 10
4.240555555555554
 20
8.19081930803564
 30
0.0
 10
4.241836348014099
 20
8.18316966465605
 30
0.0
 10
4.246617174157697
 20
8.168482458274811
 30
0.0
 10
4.250030678627219
 20
8.161706993931922
 30
0.0
 10
4.258256538839902
 20
8.149291462621653
 30
0.0
 10
4.262963187453753
 20
8.143785462327825
 30
0.0
 10
4.273223923149047
 20
8.13377511985741
 30
0.0
 10
4.278806343830624
 20
8.129271425605157
 30
0.0
 10
4.296023087865768
 20
8.117298698051307
 30
0.0
 10
4.308287887488536
 20
8.111146966914191
 30
0.0
 10
4.333758545201143
 20
8.101031921610288
 30
0.0
 10
4.346670627674911
 20
8.097207685238557
 30
0.0
 10
4.385660031912475
 20
8.087976700594684
 30
0.0
 10
4.412023287744246
 20
8.084748224062555
 30
0.0
 10
4.465057748848573
 20
8.080724061444116
 30
0.0
 10
4.491740453634999
 20
8.079970681786467
 30
0.0
 10
4.544996413252202
 20
8.079983880242674
 30
0.0
 10
4.571651903077738
 20
8.08074736820824
 30
0.0
 10
4.611510215312197
 20
8.083805324229482
 30
0.0
 10
4.624771056241401
 20
8.085158050999
 30
0.0
 10
4.651216020433377
 20
8.088875978918244
 30
0.0
 10
4.664400510035111
 20
8.091242072536266
 30
0.0
 10
4.690375188500955
 20
8.09746902804289
 30
0.0
 10
4.703194278051617
 20
8.101321733401932
 30
0.0
 10
4.72829653896555
 20
8.111381772748192
 30
0.0
 10
4.740664752016864
 20
8.11762702732952
 30
0.0
 10
4.757794318971613
 20
8.129650760978476
 30
0.0
 10
4.763309745188651
 20
8.134145763546814
 30
0.0
 10
4.773437477024646
 20
8.144112573833672
 30
0.0
 10
4.778086350978265
 20
8.14959402611672
 30
0.0
 10
4.786215172982746
 20
8.161959801707477
 30
0.0
 10
4.789572308755485
 20
8.16868082938447
 30
0.0
 10
4.794279151114596
 20
8.183226290436584
 30
0.0
 10
4.795555555555556
 20
8.19087810904531
 30
0.0
 10
4.795555555555556
 20
8.198691042489482
 30
0.0
  0
LINE
  5
133
330
1F
100
AcDbEntity
  8
0
  6
Continuous
 62
     7
370
    15
100
AcDbLine
 10
4.2405555556
 20
8.0788566492
 30
0.0
 11
4.7919772307
 21
8.0788566492
 31
0.0
  0
LINE
  5
134
330
1F
100
AcDbEntity
  8
0
  6
Continuous
 62
     7
370
    15
100
AcDbLine
 10
3.6891338804
 20
8.0788566492
 30
0.0
 11
4.2405555556
 21
8.0788566492
 31
0.0
  0
LINE
  5
135
330
1F
100
AcDbEntity
  8
0
  6
Continuous
 62
     7
370
    15
100
AcDbLine
 10
3.6855555556
 20
8.3288566492
 30
0.0
 11
3.6855555556
 21
8.1986910425
 31
0.0
  0
SPLINE
  5
136
330
1F
100
AcDbEntity
  8
0
  6
Continuous
 62
     7
370
    15
100
AcDbSpline
210
0.0
220
0.0
230
1.0
 70
     8
 71
     3
 72
    40
 73
    36
 74
     0
 42
0.00000001
 43
0.00000001
 40
0.0
 40
0.0
 40
0.0
 40
0.0
 40
0.031250000000001
 40
0.031250000000001
 40
0.0625000000000019
 40
0.0625000000000019
 40
0.0937500000000029
 40
0.0937500000000029
 40
0.1250000000000039
 40
0.1250000000000039
 40
0.1875000000000033
 40
0.1875000000000033
 40
0.2500000000000027
 40
0.2500000000000027
 40
0.3750000000000025
 40
0.3750000000000025
 40
0.5000000000000023
 40
0.5000000000000023
 40
0.6250000000000022
 40
0.6250000000000022
 40
0.6875000000000019
 40
0.6875000000000019
 40
0.7500000000000016
 40
0.7500000000000016
 40
0.8125000000000013
 40
0.8125000000000013
 40
0.875000000000001
 40
0.875000000000001
 40
0.9062500000000008
 40
0.9062500000000008
 40
0.9375000000000006
 40
0.9375000000000006
 40
0.9687500000000002
 40
0.9687500000000002
 40
1.0
 40
1.0
 40
1.0
 40
1.0
 10
4.240555555555555
 20
8.328856649153662
 30
0.0
 10
4.240555555555555
 20
8.336728383607504
 30
0.0
 10
4.23927476309701
 20
8.344378026987096
 30
0.0
 10
4.234493936953411
 20
8.359065233368334
 30
0.0
 10
4.231080432483889
 20
8.36584069771122
 30
0.0
 10
4.222854572271206
 20
8.378256229021492
 30
0.0
 10
4.218147923657355
 20
8.383762229315316
 30
0.0
 10
4.207887187962062
 20
8.393772571785734
 30
0.0
 10
4.202304767280485
 20
8.398276266037987
 30
0.0
 10
4.18508802324534
 20
8.410248993591836
 30
0.0
 10
4.172823223622572
 20
8.416400724728952
 30
0.0
 10
4.147352565909965
 20
8.426515770032859
 30
0.0
 10
4.134440483436198
 20
8.43034000640459
 30
0.0
 10
4.095451079198634
 20
8.439570991048459
 30
0.0
 10
4.069087823366863
 20
8.44279946758059
 30
0.0
 10
4.016053362262535
 20
8.446823630199026
 30
0.0
 10
3.98937065747611
 20
8.447577009856678
 30
0.0
 10
3.936114697858907
 20
8.447563811400471
 30
0.0
 10
3.909459208033371
 20
8.446800323434905
 30
0.0
 10
3.869600895798912
 20
8.443742367413664
 30
0.0
 10
3.856340054869709
 20
8.442389640644144
 30
0.0
 10
3.829895090677732
 20
8.4386717127249
 30
0.0
 10
3.816710601075999
 20
8.436305619106879
 30
0.0
 10
3.790735922610155
 20
8.430078663600254
 30
0.0
 10
3.777916833059492
 20
8.426225958241215
 30
0.0
 10
3.752814572145559
 20
8.41616591889495
 30
0.0
 10
3.740446359094246
 20
8.409920664313622
 30
0.0
 10
3.723316792139496
 20
8.397896930664668
 30
0.0
 10
3.717801365922459
 20
8.39340192809633
 30
0.0
 10
3.707673634086464
 20
8.383435117809473
 30
0.0
 10
3.703024760132844
 20
8.377953665526427
 30
0.0
 10
3.694895938128363
 20
8.365587889935664
 30
0.0
 10
3.691538802355625
 20
8.35886686225868
 30
0.0
 10
3.686831959996514
 20
8.344321401206559
 30
0.0
 10
3.685555555555554
 20
8.336669582597834
 30
0.0
 10
3.685555555555554
 20
8.328856649153662
 30
0.0
  0
LINE
  5
137
330
1F
100
AcDbEntity
  8
0
  6
Continuous
 62
     7
370
    15
100
AcDbLine
 10
4.2405555556
 20
8.3288566492
 30
0.0
 11
4.2405555556
 21
8.1986910425
 31
0.0
  0
SPLINE
  5
138
330
1F
100
AcDbEntity
  8
0
  6
Continuous
 62
     7
370
    15
100
AcDbSpline
210
0.0
220
0.0
230
1.0
 70
    24
 71
     3
 72
    22
 73
    18
 74
     0
 42
0.00000001
 43
0.00000001
 40
0.0
 40
0.0
 40
0.0
 40
0.0
 40
0.2500000000000032
 40
0.2500000000000032
 40
0.5000000000000064
 40
0.5000000000000064
 40
0.6250000000000072
 40
0.6250000000000072
 40
0.750000000000008
 40
0.750000000000008
 40
0.8125000000000061
 40
0.8125000000000061
 40
0.8750000000000041
 40
0.8750000000000041
 40
0.9375000000000021
 40
0.9375000000000021
 40
1.0
 40
1.0
 40
1.0
 40
1.0
 10
4.795555555555555
 20
8.44757044936183
 30
0.0
 10
4.795555555555555
 20
8.447570653500415
 30
0.0
 10
4.795555555555555
 20
8.446814199338574
 30
0.0
 10
4.795555555555555
 20
8.442787761080835
 30
0.0
 10
4.795555555555555
 20
8.439567086515952
 30
0.0
 10
4.795555555555555
 20
8.430251306262988
 30
0.0
 10
4.795555555555555
 20
8.426356338971363
 30
0.0
 10
4.795555555555555
 20
8.416305563607038
 30
0.0
 10
4.795555555555555
 20
8.41012472337298
 30
0.0
 10
4.795555555555555
 20
8.398074271506706
 30
0.0
 10
4.795555555555555
 20
8.393633202483558
 30
0.0
 10
4.795555555555555
 20
8.383612899868375
 30
0.0
 10
4.795555555555555
 20
8.378005968003986
 30
0.0
 10
4.795555555555555
 20
8.365726641136018
 30
0.0
 10
4.795555555555555
 20
8.358879490118921
 30
0.0
 10
4.795555555555555
 20
8.344388302863466
 30
0.0
 10
4.795555555555555
 20
8.336575774935357
 30
0.0
 10
4.795555555555555
 20
8.328856649153662
 30
0.0
  0
SPLINE
  5
139
330
1F
100
AcDbEntity
  8
0
  6
Continuous
 62
     7
370
    15
100
AcDbSpline
210
0.0
220
0.0
230
1.0
 70
     8
 71
     3
 72
    40
 73
    36
 74
     0
 42
0.00000001
 43
0.00000001
 40
0.0
 40
0.0
 40
0.0
 40
0.0
 40
0.0312500000000008
 40
0.0312500000000008
 40
0.0625000000000016
 40
0.0625000000000016
 40
0.0937500000000024
 40
0.0937500000000024
 40
0.1250000000000032
 40
0.1250000000000032
 40
0.1875000000000026
 40
0.1875000000000026
 40
0.2500000000000021
 40
0.2500000000000021
 40
0.375000000000002
 40
0.375000000000002
 40
0.500000000000002
 40
0.500000000000002
 40
0.625000000000002
 40
0.625000000000002
 40
0.6875000000000017
 40
0.6875000000000017
 40
0.7500000000000013
 40
0.7500000000000013
 40
0.8125000000000011
 40
0.8125000000000011
 40
0.8750000000000008
 40
0.8750000000000008
 40
0.9062500000000006
 40
0.9062500000000006
 40
0.9375000000000004
 40
0.9375000000000004
 40
0.9687500000000002
 40
0.9687500000000002
 40
1.0
 40
1.0
 40
1.0
 40
1.0
 10
4.795555555555556
 20
8.328856649153662
 30
0.0
 10
4.795555555555556
 20
8.336728383607504
 30
0.0
 10
4.794274763097011
 20
8.344378026987096
 30
0.0
 10
4.789493936953412
 20
8.359065233368334
 30
0.0
 10
4.78608043248389
 20
8.36584069771122
 30
0.0
 10
4.777854572271207
 20
8.378256229021494
 30
0.0
 10
4.773147923657357
 20
8.38376222931532
 30
0.0
 10
4.762887187962063
 20
8.393772571785735
 30
0.0
 10
4.757304767280486
 20
8.398276266037989
 30
0.0
 10
4.740088023245341
 20
8.41024899359184
 30
0.0
 10
4.727823223622573
 20
8.416400724728954
 30
0.0
 10
4.702352565909965
 20
8.426515770032859
 30
0.0
 10
4.689440483436199
 20
8.430340006404588
 30
0.0
 10
4.650451079198635
 20
8.439570991048459
 30
0.0
 10
4.624087823366864
 20
8.44279946758059
 30
0.0
 10
4.571053362262536
 20
8.446823630199026
 30
0.0
 10
4.54437065747611
 20
8.447577009856678
 30
0.0
 10
4.491114697858907
 20
8.447563811400471
 30
0.0
 10
4.464459208033372
 20
8.446800323434905
 30
0.0
 10
4.424600895798912
 20
8.443742367413664
 30
0.0
 10
4.411340054869709
 20
8.442389640644144
 30
0.0
 10
4.384895090677733
 20
8.4386717127249
 30
0.0
 10
4.371710601075999
 20
8.436305619106879
 30
0.0
 10
4.345735922610155
 20
8.430078663600254
 30
0.0
 10
4.332916833059492
 20
8.426225958241215
 30
0.0
 10
4.30781457214556
 20
8.41616591889495
 30
0.0
 10
4.295446359094246
 20
8.409920664313624
 30
0.0
 10
4.278316792139496
 20
8.397896930664666
 30
0.0
 10
4.272801365922459
 20
8.39340192809633
 30
0.0
 10
4.262673634086464
 20
8.383435117809475
 30
0.0
 10
4.258024760132844
 20
8.377953665526427
 30
0.0
 10
4.249895938128364
 20
8.365587889935666
 30
0.0
 10
4.246538802355626
 20
8.358866862258678
 30
0.0
 10
4.241831959996514
 20
8.344321401206559
 30
0.0
 10
4.240555555555554
 20
8.336669582597834
 30
0.0
 10
4.240555555555554
 20
8.328856649153662
 30
0.0
  0
SPLINE
  5
13A
330
1F
100
AcDbEntity
  8
0
  6
Continuous
 62
     7
370
    15
100
AcDbSpline
210
0.0
220
0.0
230
1.0
 70
    24
 71
     3
 72
    15
 73
    11
 74
     0
 42
0.00000001
 43
0.00000001
 40
0.0
 40
0.0
 40
0.0
 40
0.0
 40
0.0207548231367881
 40
0.0785374142157351
 40
0.155908118019533
 40
0.2735337811723572
 40
0.4923128701661106
 40
0.744449669352673
 40
0.9998564342729229
 40
1.0
 40
1.0
 40
1.0
 40
1.0
 10
3.685555555555554
 20
8.328856649153662
 30
0.0
 10
3.685555555555554
 20
8.33141030533641
 30
0.0
 10
3.685555555555555
 20
8.341073483483838
 30
0.0
 10
3.685555555555554
 20
8.35978472769723
 30
0.0
 10
3.685555555555555
 20
8.38533825230158
 30
0.0
 10
3.685555555555555
 20
8.41486599794231
 30
0.0
 10
3.685555555555548
 20
8.436290868229682
 30
0.0
 10
3.68555555555558
 20
8.445523470360286
 30
0.0
 10
3.6855555555555
 20
8.4486131354337
 30
0.0
 10
3.685555555555554
 20
8.447569277360236
 30
0.0
 10
3.685555555555554
 20
8.447568690930773
 30
0.0
  0
LINE
  5
13B
330
1F
100
AcDbEntity
  8
0
  6
Continuous
 62
     7
370
    15
100
AcDbLine
 10
4.2405555556
 20
8.4538566492
 30
0.0
 11
4.7564143544
 21
8.4538566492
 31
0.0
  0
LINE
  5
13C
330
1F
100
AcDbEntity
  8
0
  6
Continuous
 62
     7
370
    15
100
AcDbLine
 10
3.7246967568
 20
8.4538566492
 30
0.0
 11
4.2405555556
 21
8.4538566492
 31
0.0
  0
LINE
  5
13D
330
1F
100
AcDbEntity
  8
0
  6
Continuous
 62
     7
370
    15
100
AcDbLine
 10
4.7955555556
 20
8.3288566492
 30
0.0
 11
4.7955555556
 21
8.1986910425
 31
0.0
  0
LINE
  5
13E
330
1F
100
AcDbEntity
  8
0
  6
Continuous
 62
     7
370
    15
100
AcDbLine
 10
4.7955555556
 20
8.0775220202
 30
0.0
 11
3.6855555556
 21
8.0775220202
 31
0.0
  0
SPLINE
  5
13F
330
1F
100
AcDbEntity
  8
0
  6
Continuous
 62
     7
370
    15
100
AcDbSpline
210
0.0
220
0.0
230
1.0
 70
    24
 71
     3
 72
    44
 73
    40
 74
     0
 42
0.00000001
 43
0.00000001
 40
0.0
 40
0.0
 40
0.0
 40
0.0
 40
0.0156249999999979
 40
0.0156249999999979
 40
0.0312499999999959
 40
0.0312499999999959
 40
0.0624999999999958
 40
0.0624999999999958
 40
0.0937499999999957
 40
0.0937499999999957
 40
0.1249999999999957
 40
0.1249999999999957
 40
0.1562499999999956
 40
0.1562499999999956
 40
0.1874999999999955
 40
0.1874999999999955
 40
0.2499999999999953
 40
0.2499999999999953
 40
0.3749999999999951
 40
0.3749999999999951
 40
0.4999999999999949
 40
0.4999999999999949
 40
0.6249999999999946
 40
0.6249999999999946
 40
0.7499999999999943
 40
0.7499999999999943
 40
0.8124999999999948
 40
0.8124999999999948
 40
0.8437499999999957
 40
0.8437499999999957
 40
0.8749999999999966
 40
0.8749999999999966
 40
0.9062499999999974
 40
0.9062499999999974
 40
0.9374999999999983
 40
0.9374999999999983
 40
0.9687499999999992
 40
0.9687499999999992
 40
1.0
 40
1.0
 40
1.0
 40
1.0
 10
14.48357162162247
 20
5.238822222222237
 30
0.0
 10
14.48357162162247
 20
5.238822222222238
 30
0.0
 10
14.48320463572098
 20
5.238822222222238
 30
0.0
 10
14.48177298826666
 20
5.238822222222238
 30
0.0
 10
14.48071864753767
 20
5.238822222222238
 30
0.0
 10
14.47662982629596
 20
5.238822222222238
 30
0.0
 10
14.47268042180781
 20
5.238822222222237
 30
0.0
 10
14.46331395885266
 20
5.238822222222237
 30
0.0
 10
14.4577935395363
 20
5.238822222222237
 30
0.0
 10
14.44601730606855
 20
5.238822222222237
 30
0.0
 10
14.4397118536789
 20
5.238822222222237
 30
0.0
 10
14.42647689641509
 20
5.238822222222237
 30
0.0
 10
14.41954058416455
 20
5.238822222222237
 30
0.0
 10
14.40549736383786
 20
5.238822222222237
 30
0.0
 10
14.39834521252521
 20
5.238822222222237
 30
0.0
 10
14.37658746917769
 20
5.238822222222237
 30
0.0
 10
14.36165968871279
 20
5.238822222222237
 30
0.0
 10
14.31626097759526
 20
5.238822222222238
 30
0.0
 10
14.28575422105212
 20
5.238822222222238
 30
0.0
 10
14.2245474518292
 20
5.238822222222238
 30
0.0
 10
14.19381792043548
 20
5.238822222222238
 30
0.0
 10
14.13233952369217
 20
5.238822222222237
 30
0.0
 10
14.10166825212349
 20
5.238822222222237
 30
0.0
 10
14.04055146529131
 20
5.238822222222238
 30
0.0
 10
14.01010151934081
 20
5.238822222222238
 30
0.0
 10
13.96482935405333
 20
5.238822222222237
 30
0.0
 10
13.94977702526269
 20
5.238822222222237
 30
0.0
 10
13.92796108950479
 20
5.238822222222238
 30
0.0
 10
13.92079837339282
 20
5.238822222222237
 30
0.0
 10
13.90675481966879
 20
5.238822222222237
 30
0.0
 10
13.89983761790544
 20
5.238822222222237
 30
0.0
 10
13.88656220817859
 20
5.238822222222237
 30
0.0
 10
13.88023660805089
 20
5.238822222222237
 30
0.0
 10
13.86842271732509
 20
5.238822222222237
 30
0.0
 10
13.86292969722636
 20
5.238822222222237
 30
0.0
 10
13.85358686397876
 20
5.238822222222237
 30
0.0
 10
13.84962871958212
 20
5.238822222222237
 30
0.0
 10
13.84420610045614
 20
5.238822222222237
 30
0.0
 10
13.84271282282199
 20
5.238822222222238
 30
0.0
 10
13.84271282282199
 20
5.238822222222237
 30
0.0
  0
SPLINE
  5
140
330
1F
100
AcDbEntity
  8
0
  6
Continuous
 62
     7
370
    15
100
AcDbSpline
210
0.0
220
0.0
230
1.0
 70
    24
 71
     3
 72
    40
 73
    36
 74
     0
 42
0.00000001
 43
0.00000001
 40
0.0
 40
0.0
 40
0.0
 40
0.0
 40
0.0312500000000008
 40
0.0312500000000008
 40
0.0625000000000016
 40
0.0625000000000016
 40
0.0937500000000024
 40
0.0937500000000024
 40
0.1250000000000032
 40
0.1250000000000032
 40
0.1875000000000026
 40
0.1875000000000026
 40
0.2500000000000021
 40
0.2500000000000021
 40
0.375000000000002
 40
0.375000000000002
 40
0.500000000000002
 40
0.500000000000002
 40
0.625000000000002
 40
0.625000000000002
 40
0.6875000000000017
 40
0.6875000000000017
 40
0.7500000000000013
 40
0.7500000000000013
 40
0.8125000000000011
 40
0.8125000000000011
 40
0.8750000000000008
 40
0.8750000000000008
 40
0.9062500000000006
 40
0.9062500000000006
 40
0.9375000000000004
 40
0.9375000000000004
 40
0.9687500000000002
 40
0.9687500000000002
 40
1.0
 40
1.0
 40
1.0
 40
1.0
 10
13.84271282282199
 20
5.238822222222237
 30
0.0
 10
13.84271282282199
 20
5.238822222222237
 30
0.0
 10
13.84197335695127
 20
5.240103014680781
 30
0.0
 10
13.83921314569032
 20
5.244883840824379
 30
0.0
 10
13.83724235796596
 20
5.248297345293901
 30
0.0
 10
13.83249315535785
 20
5.256523205506585
 30
0.0
 10
13.82977577051366
 20
5.261229854120435
 30
0.0
 10
13.8238517319979
 20
5.271490589815729
 30
0.0
 10
13.82062871991466
 20
5.277073010497306
 30
0.0
 10
13.8106886281114
 20
5.294289754532451
 30
0.0
 10
13.80360754274764
 20
5.306554554155219
 30
0.0
 10
13.78890205166083
 20
5.332025211867826
 30
0.0
 10
13.7814472573688
 20
5.344937294341593
 30
0.0
 10
13.7589367143367
 20
5.383926698579157
 30
0.0
 10
13.74371588148551
 20
5.410289954410928
 30
0.0
 10
13.7130964210906
 20
5.463324415515255
 30
0.0
 10
13.69769115429945
 20
5.490007120301682
 30
0.0
 10
13.66694381167851
 20
5.543263079918884
 30
0.0
 10
13.65155425745235
 20
5.569918569744421
 30
0.0
 10
13.62854205015434
 20
5.609776881978879
 30
0.0
 10
13.62088590007419
 20
5.623037722908082
 30
0.0
 10
13.60561789287924
 20
5.649482687100059
 30
0.0
 10
13.59800582425855
 20
5.662667176701793
 30
0.0
 10
13.58300933665418
 20
5.688641855167637
 30
0.0
 10
13.57560823185134
 20
5.701460944718299
 30
0.0
 10
13.56111543475541
 20
5.726563205632232
 30
0.0
 10
13.55397464362084
 20
5.738931418683546
 30
0.0
 10
13.54408488352842
 20
5.756060985638295
 30
0.0
 10
13.54090055071731
 20
5.761576411855333
 30
0.0
 10
13.53505330201552
 20
5.771704143691329
 30
0.0
 10
13.53236927338697
 20
5.776353017644948
 30
0.0
 10
13.52767609581449
 20
5.784481839649428
 30
0.0
 10
13.52573785257239
 20
5.787838975422167
 30
0.0
 10
13.52302035586933
 20
5.792545817781279
 30
0.0
 10
13.52228342342175
 20
5.793822222222238
 30
0.0
 10
13.52228342342174
 20
5.793822222222238
 30
0.0
  0
SPLINE
  5
141
330
1F
100
AcDbEntity
  8
0
  6
Continuous
 62
     7
370
    15
100
AcDbSpline
210
0.0
220
0.0
230
1.0
 70
    24
 71
     3
 72
    40
 73
    36
 74
     0
 42
0.00000001
 43
0.00000001
 40
0.0
 40
0.0
 40
0.0
 40
0.0
 40
0.031250000000001
 40
0.031250000000001
 40
0.0625000000000019
 40
0.0625000000000019
 40
0.0937500000000029
 40
0.0937500000000029
 40
0.1250000000000039
 40
0.1250000000000039
 40
0.1875000000000033
 40
0.1875000000000033
 40
0.2500000000000027
 40
0.2500000000000027
 40
0.3750000000000025
 40
0.3750000000000025
 40
0.5000000000000023
 40
0.5000000000000023
 40
0.6250000000000022
 40
0.6250000000000022
 40
0.6875000000000019
 40
0.6875000000000019
 40
0.7500000000000016
 40
0.7500000000000016
 40
0.8125000000000013
 40
0.8125000000000013
 40
0.875000000000001
 40
0.875000000000001
 40
0.9062500000000008
 40
0.9062500000000008
 40
0.9375000000000006
 40
0.9375000000000006
 40
0.9687500000000002
 40
0.9687500000000002
 40
1.0
 40
1.0
 40
1.0
 40
1.0
 10
13.52228342342174
 20
5.793822222222237
 30
0.0
 10
13.52228342342174
 20
5.793822222222237
 30
0.0
 10
13.52302288929246
 20
5.795103014680781
 30
0.0
 10
13.52578310055342
 20
5.79988384082438
 30
0.0
 10
13.52775388827777
 20
5.803297345293903
 30
0.0
 10
13.53250309088588
 20
5.811523205506585
 30
0.0
 10
13.53522047573007
 20
5.816229854120436
 30
0.0
 10
13.54114451424583
 20
5.826490589815729
 30
0.0
 10
13.54436752632907
 20
5.832073010497306
 30
0.0
 10
13.55430761813233
 20
5.849289754532452
 30
0.0
 10
13.56138870349609
 20
5.861554554155219
 30
0.0
 10
13.5760941945829
 20
5.887025211867826
 30
0.0
 10
13.58354898887493
 20
5.899937294341593
 30
0.0
 10
13.60605953190703
 20
5.938926698579158
 30
0.0
 10
13.62128036475822
 20
5.965289954410929
 30
0.0
 10
13.65189982515313
 20
6.018324415515257
 30
0.0
 10
13.66730509194428
 20
6.045007120301682
 30
0.0
 10
13.69805243456523
 20
6.098263079918884
 30
0.0
 10
13.71344198879138
 20
6.124918569744422
 30
0.0
 10
13.73645419608939
 20
6.16477688197888
 30
0.0
 10
13.74411034616954
 20
6.178037722908083
 30
0.0
 10
13.75937835336449
 20
6.204482687100058
 30
0.0
 10
13.76699042198518
 20
6.217667176701793
 30
0.0
 10
13.78198690958955
 20
6.243641855167636
 30
0.0
 10
13.78938801439239
 20
6.256460944718301
 30
0.0
 10
13.80388081148832
 20
6.281563205632233
 30
0.0
 10
13.81102160262289
 20
6.293931418683546
 30
0.0
 10
13.82091136271531
 20
6.311060985638295
 30
0.0
 10
13.82409569552642
 20
6.316576411855333
 30
0.0
 10
13.82994294422821
 20
6.326704143691328
 30
0.0
 10
13.83262697285676
 20
6.331353017644948
 30
0.0
 10
13.83732015042924
 20
6.339481839649428
 30
0.0
 10
13.83925839367134
 20
6.342838975422167
 30
0.0
 10
13.84197589037441
 20
6.347545817781278
 30
0.0
 10
13.84271282282199
 20
6.348822222222238
 30
0.0
 10
13.84271282282199
 20
6.348822222222238
 30
0.0
  0
SPLINE
  5
142
330
1F
100
AcDbEntity
  8
0
  6
Continuous
 62
     7
370
    15
100
AcDbSpline
210
0.0
220
0.0
230
1.0
 70
    24
 71
     3
 72
    40
 73
    36
 74
     0
 42
0.00000001
 43
0.00000001
 40
0.0
 40
0.0
 40
0.0
 40
0.0
 40
0.0312500000000008
 40
0.0312500000000008
 40
0.0625000000000015
 40
0.0625000000000015
 40
0.0937500000000023
 40
0.0937500000000023
 40
0.1250000000000031
 40
0.1250000000000031
 40
0.1875000000000025
 40
0.1875000000000025
 40
0.250000000000002
 40
0.250000000000002
 40
0.3750000000000017
 40
0.3750000000000017
 40
0.5000000000000013
 40
0.5000000000000013
 40
0.625000000000001
 40
0.625000000000001
 40
0.6875000000000008
 40
0.6875000000000008
 40
0.7500000000000006
 40
0.7500000000000006
 40
0.8125000000000003
 40
0.8125000000000003
 40
0.875
 40
0.875
 40
0.90625
 40
0.90625
 40
0.9375
 40
0.9375
 40
0.96875
 40
0.96875
 40
1.0
 40
1.0
 40
1.0
 40
1.0
 10
14.48357162162247
 20
6.348822222222239
 30
0.0
 10
14.48357162162247
 20
6.348822222222239
 30
0.0
 10
14.48431108749319
 20
6.347541429763695
 30
0.0
 10
14.48707129875414
 20
6.342760603620096
 30
0.0
 10
14.4890420864785
 20
6.339347099150573
 30
0.0
 10
14.49379128908661
 20
6.33112123893789
 30
0.0
 10
14.4965086739308
 20
6.326414590324039
 30
0.0
 10
14.50243271244656
 20
6.316153854628746
 30
0.0
 10
14.5056557245298
 20
6.310571433947168
 30
0.0
 10
14.51559581633306
 20
6.293354689912024
 30
0.0
 10
14.52267690169682
 20
6.281089890289256
 30
0.0
 10
14.53738239278363
 20
6.255619232576649
 30
0.0
 10
14.54483718707566
 20
6.242707150102882
 30
0.0
 10
14.56734773010776
 20
6.203717745865318
 30
0.0
 10
14.58256856295895
 20
6.177354490033547
 30
0.0
 10
14.61318802335385
 20
6.124320028929218
 30
0.0
 10
14.62859329014501
 20
6.097637324142793
 30
0.0
 10
14.65934063276595
 20
6.044381364525591
 30
0.0
 10
14.67473018699211
 20
6.017725874700054
 30
0.0
 10
14.69774239429012
 20
5.977867562465595
 30
0.0
 10
14.70539854437027
 20
5.964606721536392
 30
0.0
 10
14.72066655156522
 20
5.938161757344416
 30
0.0
 10
14.72827862018591
 20
5.924977267742682
 30
0.0
 10
14.74327510779028
 20
5.899002589276837
 30
0.0
 10
14.75067621259312
 20
5.886183499726175
 30
0.0
 10
14.76516900968904
 20
5.861081238812242
 30
0.0
 10
14.77230980082362
 20
5.848713025760929
 30
0.0
 10
14.78219956091604
 20
5.831583458806179
 30
0.0
 10
14.78538389372714
 20
5.826068032589141
 30
0.0
 10
14.79123114242894
 20
5.815940300753145
 30
0.0
 10
14.79391517105749
 20
5.811291426799526
 30
0.0
 10
14.79860834862997
 20
5.803162604795046
 30
0.0
 10
14.80054659187206
 20
5.799805469022307
 30
0.0
 10
14.80326408857513
 20
5.795098626663195
 30
0.0
 10
14.80400102102271
 20
5.793822222222236
 30
0.0
 10
14.80400102102271
 20
5.793822222222236
 30
0.0
  0
SPLINE
  5
143
330
1F
100
AcDbEntity
  8
0
  6
Continuous
 62
     7
370
    15
100
AcDbSpline
210
0.0
220
0.0
230
1.0
 70
    24
 71
     3
 72
    40
 73
    36
 74
     0
 42
0.00000001
 43
0.00000001
 40
0.0
 40
0.0
 40
0.0
 40
0.0
 40
0.0312500000000008
 40
0.0312500000000008
 40
0.0625000000000015
 40
0.0625000000000015
 40
0.0937500000000023
 40
0.0937500000000023
 40
0.1250000000000031
 40
0.1250000000000031
 40
0.1875000000000024
 40
0.1875000000000024
 40
0.2500000000000017
 40
0.2500000000000017
 40
0.3750000000000013
 40
0.3750000000000013
 40
0.5000000000000009
 40
0.5000000000000009
 40
0.6250000000000006
 40
0.6250000000000006
 40
0.6875000000000004
 40
0.6875000000000004
 40
0.7500000000000002
 40
0.7500000000000002
 40
0.8125000000000001
 40
0.8125000000000001
 40
0.875
 40
0.875
 40
0.90625
 40
0.90625
 40
0.9375
 40
0.9375
 40
0.96875
 40
0.96875
 40
1.0
 40
1.0
 40
1.0
 40
1.0
 10
14.80400102102271
 20
5.793822222222239
 30
0.0
 10
14.80400102102271
 20
5.793822222222239
 30
0.0
 10
14.803261555152
 20
5.792541429763695
 30
0.0
 10
14.80050134389104
 20
5.787760603620096
 30
0.0
 10
14.79853055616668
 20
5.784347099150573
 30
0.0
 10
14.79378135355858
 20
5.776121238937891
 30
0.0
 10
14.79106396871439
 20
5.771414590324039
 30
0.0
 10
14.78513993019862
 20
5.761153854628747
 30
0.0
 10
14.78191691811539
 20
5.755571433947169
 30
0.0
 10
14.77197682631213
 20
5.738354689912025
 30
0.0
 10
14.76489574094836
 20
5.726089890289257
 30
0.0
 10
14.75019024986156
 20
5.700619232576649
 30
0.0
 10
14.74273545556953
 20
5.687707150102883
 30
0.0
 10
14.72022491253743
 20
5.648717745865317
 30
0.0
 10
14.70500407968624
 20
5.622354490033547
 30
0.0
 10
14.67438461929133
 20
5.569320028929218
 30
0.0
 10
14.65897935250018
 20
5.542637324142794
 30
0.0
 10
14.62823200987923
 20
5.48938136452559
 30
0.0
 10
14.61284245565308
 20
5.462725874700054
 30
0.0
 10
14.58983024835507
 20
5.422867562465595
 30
0.0
 10
14.58217409827491
 20
5.409606721536392
 30
0.0
 10
14.56690609107997
 20
5.383161757344415
 30
0.0
 10
14.55929402245928
 20
5.369977267742682
 30
0.0
 10
14.54429753485491
 20
5.344002589276837
 30
0.0
 10
14.53689643005207
 20
5.331183499726174
 30
0.0
 10
14.52240363295614
 20
5.306081238812242
 30
0.0
 10
14.51526284182157
 20
5.293713025760929
 30
0.0
 10
14.50537308172914
 20
5.276583458806178
 30
0.0
 10
14.50218874891804
 20
5.271068032589142
 30
0.0
 10
14.49634150021625
 20
5.260940300753147
 30
0.0
 10
14.4936574715877
 20
5.256291426799526
 30
0.0
 10
14.48896429401522
 20
5.248162604795046
 30
0.0
 10
14.48702605077312
 20
5.244805469022308
 30
0.0
 10
14.48430855407005
 20
5.240098626663197
 30
0.0
 10
14.48357162162247
 20
5.238822222222236
 30
0.0
 10
14.48357162162247
 20
5.238822222222236
 30
0.0
  0
CIRCLE
  5
144
330
1F
100
AcDbEntity
  8
0
  6
Continuous
 62
     7
370
    15
100
AcDbCircle
 10
14.1631422222
 20
5.7938222222
 30
0.0
 40
0.515858798800485
  0
SPLINE
  5
145
330
1F
100
AcDbEntity
  8
0
  6
Continuous
 62
     7
370
    15
100
AcDbSpline
210
0.0
220
0.0
230
1.0
 70
    24
 71
     3
 72
    44
 73
    40
 74
     0
 42
0.00000001
 43
0.00000001
 40
0.0
 40
0.0
 40
0.0
 40
0.0
 40
0.015624999999998
 40
0.015624999999998
 40
0.0312499999999959
 40
0.0312499999999959
 40
0.0624999999999959
 40
0.0624999999999959
 40
0.0937499999999958
 40
0.0937499999999958
 40
0.1249999999999958
 40
0.1249999999999958
 40
0.1562499999999957
 40
0.1562499999999957
 40
0.1874999999999956
 40
0.1874999999999956
 40
0.2499999999999955
 40
0.2499999999999955
 40
0.3749999999999952
 40
0.3749999999999952
 40
0.4999999999999949
 40
0.4999999999999949
 40
0.6249999999999946
 40
0.6249999999999946
 40
0.7499999999999942
 40
0.7499999999999942
 40
0.8124999999999944
 40
0.8124999999999944
 40
0.8437499999999954
 40
0.8437499999999954
 40
0.8749999999999963
 40
0.8749999999999963
 40
0.9062499999999972
 40
0.9062499999999972
 40
0.9374999999999981
 40
0.9374999999999981
 40
0.9687499999999991
 40
0.9687499999999991
 40
1.0
 40
1.0
 40
1.0
 40
1.0
 10
13.84271282282198
 20
6.348822222222237
 30
0.0
 10
13.84271282282199
 20
6.348822222222237
 30
0.0
 10
13.84307980872348
 20
6.348822222222237
 30
0.0
 10
13.8445114561778
 20
6.348822222222237
 30
0.0
 10
13.84556579690679
 20
6.348822222222237
 30
0.0
 10
13.8496546181485
 20
6.348822222222237
 30
0.0
 10
13.85360402263664
 20
6.348822222222237
 30
0.0
 10
13.86297048559179
 20
6.348822222222237
 30
0.0
 10
13.86849090490816
 20
6.348822222222237
 30
0.0
 10
13.88026713837591
 20
6.348822222222237
 30
0.0
 10
13.88657259076555
 20
6.348822222222237
 30
0.0
 10
13.89980754802937
 20
6.348822222222237
 30
0.0
 10
13.90674386027991
 20
6.348822222222237
 30
0.0
 10
13.9207870806066
 20
6.348822222222237
 30
0.0
 10
13.92793923191925
 20
6.348822222222237
 30
0.0
 10
13.94969697526677
 20
6.348822222222237
 30
0.0
 10
13.96462475573167
 20
6.348822222222237
 30
0.0
 10
14.01002346684919
 20
6.348822222222237
 30
0.0
 10
14.04053022339234
 20
6.348822222222237
 30
0.0
 10
14.10173699261526
 20
6.348822222222237
 30
0.0
 10
14.13246652400897
 20
6.348822222222237
 30
0.0
 10
14.19394492075229
 20
6.348822222222237
 30
0.0
 10
14.22461619232097
 20
6.348822222222237
 30
0.0
 10
14.28573297915315
 20
6.348822222222238
 30
0.0
 10
14.31618292510365
 20
6.348822222222238
 30
0.0
 10
14.36145509039113
 20
6.348822222222237
 30
0.0
 10
14.37650741918177
 20
6.348822222222237
 30
0.0
 10
14.39832335493967
 20
6.348822222222238
 30
0.0
 10
14.40548607105164
 20
6.348822222222237
 30
0.0
 10
14.41952962477567
 20
6.348822222222237
 30
0.0
 10
14.42644682653901
 20
6.348822222222237
 30
0.0
 10
14.43972223626587
 20
6.348822222222237
 30
0.0
 10
14.44604783639357
 20
6.348822222222237
 30
0.0
 10
14.45786172711937
 20
6.348822222222238
 30
0.0
 10
14.4633547472181
 20
6.348822222222238
 30
0.0
 10
14.4726975804657
 20
6.348822222222238
 30
0.0
 10
14.47665572486233
 20
6.348822222222237
 30
0.0
 10
14.48207834398832
 20
6.348822222222238
 30
0.0
 10
14.48357162162247
 20
6.348822222222238
 30
0.0
 10
14.48357162162247
 20
6.348822222222237
 30
0.0
  0
SPLINE
  5
146
330
1F
100
AcDbEntity
  8
0
  6
Continuous
 62
     7
370
    15
100
AcDbSpline
210
0.0
220
0.0
230
1.0
 70
    24
 71
     3
 72
    22
 73
    18
 74
     0
 42
0.00000001
 43
0.00000001
 40
0.0
 40
0.0
 40
0.0
 40
0.0
 40
0.0624999999999997
 40
0.0624999999999997
 40
0.1249999999999994
 40
0.1249999999999994
 40
0.1874999999999991
 40
0.1874999999999991
 40
0.2499999999999988
 40
0.2499999999999988
 40
0.374999999999999
 40
0.374999999999999
 40
0.4999999999999992
 40
0.4999999999999992
 40
0.7499999999999996
 40
0.7499999999999996
 40
1.0
 40
1.0
 40
1.0
 40
1.0
 10
14.75203949679565
 20
6.813822222222239
 30
0.0
 10
14.75203949679565
 20
6.813822222222239
 30
0.0
 10
14.75281994685424
 20
6.812470443067982
 30
0.0
 10
14.7556985517444
 20
6.807484553143307
 30
0.0
 10
14.75774975584603
 20
6.803931763422597
 30
0.0
 10
14.76263999720984
 20
6.795461616919208
 30
0.0
 10
14.76542784292004
 20
6.790632926505469
 30
0.0
 10
14.77148440280529
 20
6.780142657065126
 30
0.0
 10
14.77476903611436
 20
6.774453505289588
 30
0.0
 10
14.78489239183316
 20
6.756919338841546
 30
0.0
 10
14.79208987112687
 20
6.744452939018398
 30
0.0
 10
14.80702997146967
 20
6.718575926154493
 30
0.0
 10
14.81465854031152
 20
6.705362857331369
 30
0.0
 10
14.83763907797887
 20
6.665559398506288
 30
0.0
 10
14.85319979401044
 20
6.638607447737451
 30
0.0
 10
14.88455805951486
 20
6.584293338646567
 30
0.0
 10
14.90036743225766
 20
6.556910701820225
 30
0.0
 10
14.91612674916212
 20
6.529614764249135
 30
0.0
  0
ARC
  5
147
330
1F
100
AcDbEntity
  8
0
  6
Continuous
 62
     7
370
    15
100
AcDbCircle
 10
14.1631422222
 20
5.7938222222
 30
0.0
 40
1.052794549146837
100
AcDbArc
 50
44.3383936275
 51
75.6616063725
  0
SPLINE
  5
148
330
1F
100
AcDbEntity
  8
0
  6
Continuous
 62
     7
370
    15
100
AcDbSpline
210
0.0
220
0.0
230
1.0
 70
    24
 71
     3
 72
    20
 73
    16
 74
     0
 42
0.00000001
 43
0.00000001
 40
0.0
 40
0.0
 40
0.0
 40
0.0
 40
0.2500000000000012
 40
0.2500000000000012
 40
0.5000000000000023
 40
0.5000000000000023
 40
0.6250000000000017
 40
0.6250000000000017
 40
0.750000000000001
 40
0.750000000000001
 40
0.8750000000000004
 40
0.8750000000000004
 40
0.9375000000000002
 40
0.9375000000000002
 40
1.0
 40
1.0
 40
1.0
 40
1.0
 10
14.42386499206271
 20
6.813822222222236
 30
0.0
 10
14.45529944160558
 20
6.813822222222236
 30
0.0
 10
14.48664494544988
 20
6.813822222222236
 30
0.0
 10
14.54893782563746
 20
6.813822222222236
 30
0.0
 10
14.57989336316497
 20
6.813822222222236
 30
0.0
 10
14.62574050357566
 20
6.813822222222236
 30
0.0
 10
14.64092436209677
 20
6.813822222222236
 30
0.0
 10
14.67097775841868
 20
6.813822222222236
 30
0.0
 10
14.68569857503991
 20
6.813822222222236
 30
0.0
 10
14.71311372738032
 20
6.813822222222236
 30
0.0
 10
14.72566756654416
 20
6.813822222222236
 30
0.0
 10
14.74055105329459
 20
6.813822222222236
 30
0.0
 10
14.74465047055916
 20
6.813822222222236
 30
0.0
 10
14.75048296681795
 20
6.813822222222236
 30
0.0
 10
14.75203949679565
 20
6.813822222222236
 30
0.0
 10
14.75203949679565
 20
6.813822222222236
 30
0.0
  0
SPLINE
  5
149
330
1F
100
AcDbEntity
  8
0
  6
Continuous
 62
     7
370
    15
100
AcDbSpline
210
0.0
220
0.0
230
1.0
 70
    24
 71
     3
 72
    20
 73
    16
 74
     0
 42
0.00000001
 43
0.00000001
 40
0.0
 40
0.0
 40
0.0
 40
0.0
 40
0.2500000000000008
 40
0.2500000000000008
 40
0.5000000000000016
 40
0.5000000000000016
 40
0.6250000000000012
 40
0.6250000000000012
 40
0.750000000000001
 40
0.750000000000001
 40
0.8750000000000007
 40
0.8750000000000007
 40
0.9375000000000003
 40
0.9375000000000003
 40
1.0
 40
1.0
 40
1.0
 40
1.0
 10
13.90241945238175
 20
4.773822222222237
 30
0.0
 10
13.87098500283888
 20
4.773822222222237
 30
0.0
 10
13.83963949899458
 20
4.773822222222237
 30
0.0
 10
13.777346618807
 20
4.773822222222237
 30
0.0
 10
13.74639108127949
 20
4.773822222222237
 30
0.0
 10
13.7005439408688
 20
4.773822222222237
 30
0.0
 10
13.68536008234769
 20
4.773822222222237
 30
0.0
 10
13.65530668602578
 20
4.773822222222237
 30
0.0
 10
13.64058586940455
 20
4.773822222222237
 30
0.0
 10
13.61317071706414
 20
4.773822222222237
 30
0.0
 10
13.6006168779003
 20
4.773822222222237
 30
0.0
 10
13.58573339114986
 20
4.773822222222237
 30
0.0
 10
13.5816339738853
 20
4.773822222222237
 30
0.0
 10
13.57580147762651
 20
4.773822222222237
 30
0.0
 10
13.57424494764881
 20
4.773822222222237
 30
0.0
 10
13.57424494764881
 20
4.773822222222237
 30
0.0
  0
SPLINE
  5
14A
330
1F
100
AcDbEntity
  8
0
  6
Continuous
 62
     7
370
    15
100
AcDbSpline
210
0.0
220
0.0
230
1.0
 70
    24
 71
     3
 72
    22
 73
    18
 74
     0
 42
0.00000001
 43
0.00000001
 40
0.0
 40
0.0
 40
0.0
 40
0.0
 40
0.0625000000000001
 40
0.0625000000000001
 40
0.1250000000000002
 40
0.1250000000000002
 40
0.1875000000000003
 40
0.1875000000000003
 40
0.2500000000000004
 40
0.2500000000000004
 40
0.3750000000000007
 40
0.3750000000000007
 40
0.5000000000000009
 40
0.5000000000000009
 40
0.7500000000000004
 40
0.7500000000000004
 40
1.0
 40
1.0
 40
1.0
 40
1.0
 10
13.57424494764881
 20
4.773822222222236
 30
0.0
 10
13.57424494764881
 20
4.773822222222236
 30
0.0
 10
13.57346449759022
 20
4.775174001376493
 30
0.0
 10
13.57058589270006
 20
4.780159891301168
 30
0.0
 10
13.56853468859843
 20
4.783712681021878
 30
0.0
 10
13.56364444723462
 20
4.792182827525267
 30
0.0
 10
13.56085660152442
 20
4.797011517939006
 30
0.0
 10
13.55480004163916
 20
4.80750178737935
 30
0.0
 10
13.55151540833009
 20
4.813190939154887
 30
0.0
 10
13.5413920526113
 20
4.830725105602931
 30
0.0
 10
13.53419457331758
 20
4.843191505426077
 30
0.0
 10
13.51925447297478
 20
4.869068518289983
 30
0.0
 10
13.51162590413293
 20
4.882281587113106
 30
0.0
 10
13.48864536646559
 20
4.922085045938189
 30
0.0
 10
13.47308465043402
 20
4.949036996707026
 30
0.0
 10
13.4417263849296
 20
5.00335110579791
 30
0.0
 10
13.42591701218679
 20
5.030733742624252
 30
0.0
 10
13.41015769528234
 20
5.058029680195343
 30
0.0
  0
ARC
  5
14B
330
1F
100
AcDbEntity
  8
0
  6
Continuous
 62
     7
370
    15
100
AcDbCircle
 10
14.1631422222
 20
5.7938222222
 30
0.0
 40
1.052794549146836
100
AcDbArc
 50
224.3383936275
 51
255.6616063725
  0
ARC
  5
14C
330
1F
100
AcDbEntity
  8
0
  6
Continuous
 62
     7
370
    15
100
AcDbCircle
 10
14.1631422222
 20
5.7938222222
 30
0.0
 40
1.052794549146837
100
AcDbArc
 50
164.3383936275
 51
195.6616063725
  0
SPLINE
  5
14D
330
1F
100
AcDbEntity
  8
0
  6
Continuous
 62
     7
370
    15
100
AcDbSpline
210
0.0
220
0.0
230
1.0
 70
    24
 71
     3
 72
    22
 73
    18
 74
     0
 42
0.00000001
 43
0.00000001
 40
0.0
 40
0.0
 40
0.0
 40
0.0
 40
0.2499999999999978
 40
0.2499999999999978
 40
0.4999999999999957
 40
0.4999999999999957
 40
0.6249999999999948
 40
0.6249999999999948
 40
0.7499999999999938
 40
0.7499999999999938
 40
0.8124999999999954
 40
0.8124999999999954
 40
0.874999999999997
 40
0.874999999999997
 40
0.9374999999999986
 40
0.9374999999999986
 40
1.0
 40
1.0
 40
1.0
 40
1.0
 10
13.14943492544186
 20
5.509614764249132
 30
0.0
 10
13.13384804326419
 20
5.536612036112452
 30
0.0
 10
13.11826908967288
 20
5.563595575261358
 30
0.0
 10
13.08714746888105
 20
5.617499803686702
 30
0.0
 10
13.07160387624227
 20
5.644422095869212
 30
0.0
 10
13.04834444286443
 20
5.684708616234904
 30
0.0
 10
13.04061411537749
 20
5.698097936201429
 30
0.0
 10
13.02562581940074
 20
5.724058426352037
 30
0.0
 10
13.01830989351117
 20
5.736729981697178
 30
0.0
 10
13.00821299872596
 20
5.754218316463843
 30
0.0
 10
13.00498157245145
 20
5.759815310952209
 30
0.0
 10
12.99889231997238
 20
5.770362205626066
 30
0.0
 10
12.99602302869494
 20
5.775331963900322
 30
0.0
 10
12.99111521138766
 20
5.783832552830798
 30
0.0
 10
12.98902702489183
 20
5.787449397937252
 30
0.0
 10
12.98616038401524
 20
5.79241456558256
 30
0.0
 10
12.98534767307538
 20
5.793822222222248
 30
0.0
 10
12.98534767307538
 20
5.793822222222248
 30
0.0
  0
SPLINE
  5
14E
330
1F
100
AcDbEntity
  8
0
  6
Continuous
 62
     7
370
    15
100
AcDbSpline
210
0.0
220
0.0
230
1.0
 70
    24
 71
     3
 72
    22
 73
    18
 74
     0
 42
0.00000001
 43
0.00000001
 40
0.0
 40
0.0
 40
0.0
 40
0.0
 40
0.0624999999999998
 40
0.0624999999999998
 40
0.1249999999999997
 40
0.1249999999999997
 40
0.1874999999999996
 40
0.1874999999999996
 40
0.2499999999999994
 40
0.2499999999999994
 40
0.3749999999999996
 40
0.3749999999999996
 40
0.4999999999999997
 40
0.4999999999999997
 40
0.7499999999999998
 40
0.7499999999999998
 40
1.0
 40
1.0
 40
1.0
 40
1.0
 10
12.98534767307539
 20
5.793822222222237
 30
0.0
 10
12.98534767307539
 20
5.793822222222237
 30
0.0
 10
12.98612812313399
 20
5.795174001376495
 30
0.0
 10
12.98900672802415
 20
5.800159891301169
 30
0.0
 10
12.99105793212577
 20
5.80371268102188
 30
0.0
 10
12.99594817348958
 20
5.812182827525268
 30
0.0
 10
12.99873601919979
 20
5.817011517939007
 30
0.0
 10
13.00479257908504
 20
5.82750178737935
 30
0.0
 10
13.00807721239411
 20
5.833190939154888
 30
0.0
 10
13.0182005681129
 20
5.850725105602931
 30
0.0
 10
13.02539804740662
 20
5.863191505426077
 30
0.0
 10
13.04033814774942
 20
5.889068518289983
 30
0.0
 10
13.04796671659127
 20
5.902281587113108
 30
0.0
 10
13.07094725425861
 20
5.94208504593819
 30
0.0
 10
13.08650797029019
 20
5.969036996707026
 30
0.0
 10
13.1178662357946
 20
6.023351105797911
 30
0.0
 10
13.13367560853741
 20
6.050733742624253
 30
0.0
 10
13.14943492544186
 20
6.078029680195344
 30
0.0
  0
SPLINE
  5
14F
330
1F
100
AcDbEntity
  8
0
  6
Continuous
 62
     7
370
    15
100
AcDbSpline
210
0.0
220
0.0
230
1.0
 70
    24
 71
     3
 72
    22
 73
    18
 74
     0
 42
0.00000001
 43
0.00000001
 40
0.0
 40
0.0
 40
0.0
 40
0.0
 40
0.0624999999999999
 40
0.0624999999999999
 40
0.1249999999999999
 40
0.1249999999999999
 40
0.1874999999999998
 40
0.1874999999999998
 40
0.2499999999999998
 40
0.2499999999999998
 40
0.3749999999999997
 40
0.3749999999999997
 40
0.4999999999999998
 40
0.4999999999999998
 40
0.7499999999999999
 40
0.7499999999999999
 40
1.0
 40
1.0
 40
1.0
 40
1.0
 10
15.34093677136907
 20
5.793822222222238
 30
0.0
 10
15.34093677136907
 20
5.793822222222238
 30
0.0
 10
15.34015632131047
 20
5.792470443067981
 30
0.0
 10
15.33727771642031
 20
5.787484553143306
 30
0.0
 10
15.33522651231868
 20
5.783931763422596
 30
0.0
 10
15.33033627095488
 20
5.775461616919206
 30
0.0
 10
15.32754842524467
 20
5.770632926505469
 30
0.0
 10
15.32149186535942
 20
5.760142657065125
 30
0.0
 10
15.31820723205035
 20
5.754453505289588
 30
0.0
 10
15.30808387633156
 20
5.736919338841544
 30
0.0
 10
15.30088639703784
 20
5.724452939018398
 30
0.0
 10
15.28594629669504
 20
5.698575926154492
 30
0.0
 10
15.27831772785319
 20
5.685362857331368
 30
0.0
 10
15.25533719018585
 20
5.645559398506286
 30
0.0
 10
15.23977647415427
 20
5.61860744773745
 30
0.0
 10
15.20841820864986
 20
5.564293338646565
 30
0.0
 10
15.19260883590705
 20
5.536910701820224
 30
0.0
 10
15.17684951900259
 20
5.509614764249132
 30
0.0
  0
ARC
  5
150
330
1F
100
AcDbEntity
  8
0
  6
Continuous
 62
     7
370
    15
100
AcDbCircle
 10
14.1631422222
 20
5.7938222222
 30
0.0
 40
1.052794549146838
100
AcDbArc
 50
344.3383936275
 51
15.6616063725
  0
SPLINE
  5
151
330
1F
100
AcDbEntity
  8
0
  6
Continuous
 62
     7
370
    15
100
AcDbSpline
210
0.0
220
0.0
230
1.0
 70
    24
 71
     3
 72
    22
 73
    18
 74
     0
 42
0.00000001
 43
0.00000001
 40
0.0
 40
0.0
 40
0.0
 40
0.0
 40
0.2499999999999979
 40
0.2499999999999979
 40
0.4999999999999958
 40
0.4999999999999958
 40
0.6249999999999947
 40
0.6249999999999947
 40
0.7499999999999937
 40
0.7499999999999937
 40
0.8124999999999952
 40
0.8124999999999952
 40
0.8749999999999968
 40
0.8749999999999968
 40
0.9374999999999984
 40
0.9374999999999984
 40
1.0
 40
1.0
 40
1.0
 40
1.0
 10
15.1768495190026
 20
6.07802968019534
 30
0.0
 10
15.19243640118027
 20
6.05103240833202
 30
0.0
 10
15.20801535477158
 20
6.024048869183114
 30
0.0
 10
15.23913697556341
 20
5.970144640757771
 30
0.0
 10
15.25468056820218
 20
5.943222348575261
 30
0.0
 10
15.27794000158003
 20
5.902935828209569
 30
0.0
 10
15.28567032906697
 20
5.889546508243045
 30
0.0
 10
15.30065862504371
 20
5.863586018092438
 30
0.0
 10
15.30797455093328
 20
5.850914462747295
 30
0.0
 10
15.3180714457185
 20
5.83342612798063
 30
0.0
 10
15.32130287199301
 20
5.827829133492263
 30
0.0
 10
15.32739212447207
 20
5.817282238818406
 30
0.0
 10
15.33026141574952
 20
5.812312480544152
 30
0.0
 10
15.3351692330568
 20
5.803811891613676
 30
0.0
 10
15.33725741955263
 20
5.800195046507223
 30
0.0
 10
15.34012406042922
 20
5.795229878861912
 30
0.0
 10
15.34093677136907
 20
5.793822222222226
 30
0.0
 10
15.34093677136907
 20
5.793822222222226
 30
0.0
  0
ARC
  5
152
330
1F
100
AcDbEntity
  8
0
  6
Continuous
 62
     7
370
    15
100
AcDbCircle
 10
14.1631422222
 20
5.7938222222
 30
0.0
 40
1.052794549146836
100
AcDbArc
 50
284.3383936275
 51
315.6616063725
  0
SPLINE
  5
153
330
1F
100
AcDbEntity
  8
0
  6
Continuous
 62
     7
370
    15
100
AcDbSpline
210
0.0
220
0.0
230
1.0
 70
    24
 71
     3
 72
    22
 73
    18
 74
     0
 42
0.00000001
 43
0.00000001
 40
0.0
 40
0.0
 40
0.0
 40
0.0
 40
0.2499999999999987
 40
0.2499999999999987
 40
0.4999999999999973
 40
0.4999999999999973
 40
0.624999999999996
 40
0.624999999999996
 40
0.7499999999999947
 40
0.7499999999999947
 40
0.812499999999996
 40
0.812499999999996
 40
0.8749999999999973
 40
0.8749999999999973
 40
0.9374999999999987
 40
0.9374999999999987
 40
1.0
 40
1.0
 40
1.0
 40
1.0
 10
14.91612674916212
 20
5.058029680195341
 30
0.0
 10
14.90053986698445
 20
5.031032408332021
 30
0.0
 10
14.88496091339314
 20
5.004048869183116
 30
0.0
 10
14.8538392926013
 20
4.950144640757773
 30
0.0
 10
14.83829569996253
 20
4.923222348575261
 30
0.0
 10
14.81503626658469
 20
4.88293582820957
 30
0.0
 10
14.80730593909774
 20
4.869546508243045
 30
0.0
 10
14.792317643121
 20
4.843586018092438
 30
0.0
 10
14.78500171723143
 20
4.830914462747296
 30
0.0
 10
14.77490482244622
 20
4.81342612798063
 30
0.0
 10
14.77167339617171
 20
4.807829133492263
 30
0.0
 10
14.76558414369264
 20
4.797282238818407
 30
0.0
 10
14.76271485241519
 20
4.792312480544153
 30
0.0
 10
14.75780703510791
 20
4.783811891613676
 30
0.0
 10
14.75571884861208
 20
4.780195046507222
 30
0.0
 10
14.75285220773549
 20
4.775229878861913
 30
0.0
 10
14.75203949679564
 20
4.773822222222226
 30
0.0
 10
14.75203949679564
 20
4.773822222222226
 30
0.0
  0
SPLINE
  5
154
330
1F
100
AcDbEntity
  8
0
  6
Continuous
 62
     7
370
    15
100
AcDbSpline
210
0.0
220
0.0
230
1.0
 70
    24
 71
     3
 72
    24
 73
    20
 74
     0
 42
0.00000001
 43
0.00000001
 40
0.0
 40
0.0
 40
0.0
 40
0.0
 40
0.0312500000000032
 40
0.0312500000000032
 40
0.0625000000000063
 40
0.0625000000000063
 40
0.1250000000000046
 40
0.1250000000000046
 40
0.1875000000000028
 40
0.1875000000000028
 40
0.2500000000000011
 40
0.2500000000000011
 40
0.3750000000000015
 40
0.3750000000000015
 40
0.500000000000002
 40
0.500000000000002
 40
0.750000000000001
 40
0.750000000000001
 40
1.0
 40
1.0
 40
1.0
 40
1.0
 10
14.75203949679566
 20
4.773822222222237
 30
0.0
 10
14.75203949679566
 20
4.773822222222237
 30
0.0
 10
14.75164377613318
 20
4.773822222222237
 30
0.0
 10
14.75012941644474
 20
4.773822222222237
 30
0.0
 10
14.74901398739628
 20
4.773822222222237
 30
0.0
 10
14.74467363830431
 20
4.773822222222237
 30
0.0
 10
14.74057247472915
 20
4.773822222222237
 30
0.0
 10
14.73078968251801
 20
4.773822222222237
 30
0.0
 10
14.72509876325672
 20
4.773822222222237
 30
0.0
 10
14.71298047478816
 20
4.773822222222237
 30
0.0
 10
14.70648773449149
 20
4.773822222222237
 30
0.0
 10
14.68602695601689
 20
4.773822222222237
 30
0.0
 10
14.67155510942701
 20
4.773822222222237
 30
0.0
 10
14.64181898400504
 20
4.773822222222237
 30
0.0
 10
14.62641153786724
 20
4.773822222222237
 30
0.0
 10
14.57999040887174
 20
4.773822222222237
 30
0.0
 10
14.54887102929026
 20
4.773822222222237
 30
0.0
 10
14.48647121337272
 20
4.773822222222237
 30
0.0
 10
14.45518668206537
 20
4.773822222222237
 30
0.0
 10
14.4238649920627
 20
4.773822222222237
 30
0.0
  0
ARC
  5
155
330
1F
100
AcDbEntity
  8
0
  6
Continuous
 62
     7
370
    15
100
AcDbCircle
 10
14.1631422222
 20
5.7938222222
 30
0.0
 40
1.052794549146836
100
AcDbArc
 50
104.3383936275
 51
135.6616063725
  0
SPLINE
  5
156
330
1F
100
AcDbEntity
  8
0
  6
Continuous
 62
     7
370
    15
100
AcDbSpline
210
0.0
220
0.0
230
1.0
 70
    24
 71
     3
 72
    22
 73
    18
 74
     0
 42
0.00000001
 43
0.00000001
 40
0.0
 40
0.0
 40
0.0
 40
0.0
 40
0.2499999999999977
 40
0.2499999999999977
 40
0.4999999999999953
 40
0.4999999999999953
 40
0.6249999999999943
 40
0.6249999999999943
 40
0.7499999999999934
 40
0.7499999999999934
 40
0.8124999999999951
 40
0.8124999999999951
 40
0.8749999999999967
 40
0.8749999999999967
 40
0.9374999999999983
 40
0.9374999999999983
 40
1.0
 40
1.0
 40
1.0
 40
1.0
 10
13.41015769528234
 20
6.529614764249131
 30
0.0
 10
13.42574457746001
 20
6.556612036112452
 30
0.0
 10
13.44132353105132
 20
6.583595575261358
 30
0.0
 10
13.47244515184315
 20
6.637499803686701
 30
0.0
 10
13.48798874448193
 20
6.664422095869211
 30
0.0
 10
13.51124817785977
 20
6.704708616234904
 30
0.0
 10
13.51897850534671
 20
6.718097936201429
 30
0.0
 10
13.53396680132346
 20
6.744058426352036
 30
0.0
 10
13.54128272721303
 20
6.756729981697177
 30
0.0
 10
13.55137962199824
 20
6.774218316463843
 30
0.0
 10
13.55461104827275
 20
6.779815310952211
 30
0.0
 10
13.56070030075182
 20
6.790362205626066
 30
0.0
 10
13.56356959202927
 20
6.79533196390032
 30
0.0
 10
13.56847740933655
 20
6.803832552830798
 30
0.0
 10
13.57056559583238
 20
6.807449397937251
 30
0.0
 10
13.57343223670897
 20
6.812414565582561
 30
0.0
 10
13.57424494764882
 20
6.813822222222248
 30
0.0
 10
13.57424494764882
 20
6.813822222222248
 30
0.0
  0
SPLINE
  5
157
330
1F
100
AcDbEntity
  8
0
  6
Continuous
 62
     7
370
    15
100
AcDbSpline
210
0.0
220
0.0
230
1.0
 70
    24
 71
     3
 72
    24
 73
    20
 74
     0
 42
0.00000001
 43
0.00000001
 40
0.0
 40
0.0
 40
0.0
 40
0.0
 40
0.0312499999999999
 40
0.0312499999999999
 40
0.0624999999999998
 40
0.0624999999999998
 40
0.1249999999999997
 40
0.1249999999999997
 40
0.1874999999999995
 40
0.1874999999999995
 40
0.2499999999999993
 40
0.2499999999999993
 40
0.3749999999999994
 40
0.3749999999999994
 40
0.4999999999999996
 40
0.4999999999999996
 40
0.7499999999999998
 40
0.7499999999999998
 40
1.0
 40
1.0
 40
1.0
 40
1.0
 10
13.5742449476488
 20
6.813822222222236
 30
0.0
 10
13.5742449476488
 20
6.813822222222236
 30
0.0
 10
13.57464066831128
 20
6.813822222222236
 30
0.0
 10
13.57615502799972
 20
6.813822222222236
 30
0.0
 10
13.57727045704818
 20
6.813822222222236
 30
0.0
 10
13.58161080614014
 20
6.813822222222236
 30
0.0
 10
13.58571196971531
 20
6.813822222222236
 30
0.0
 10
13.59549476192645
 20
6.813822222222236
 30
0.0
 10
13.60118568118774
 20
6.813822222222236
 30
0.0
 10
13.61330396965629
 20
6.813822222222236
 30
0.0
 10
13.61979670995297
 20
6.813822222222236
 30
0.0
 10
13.64025748842756
 20
6.813822222222236
 30
0.0
 10
13.65472933501745
 20
6.813822222222236
 30
0.0
 10
13.68446546043942
 20
6.813822222222236
 30
0.0
 10
13.69987290657721
 20
6.813822222222236
 30
0.0
 10
13.74629403557272
 20
6.813822222222236
 30
0.0
 10
13.7774134151542
 20
6.813822222222236
 30
0.0
 10
13.83981323107174
 20
6.813822222222236
 30
0.0
 10
13.87109776237909
 20
6.813822222222236
 30
0.0
 10
13.90241945238175
 20
6.813822222222236
 30
0.0
  0
LINE
  5
158
330
1F
100
AcDbEntity
  8
0
  6
Continuous
 62
     7
370
    15
100
AcDbLine
 10
14.9161267492
 20
5.0580296802
 30
0.0
 11
15.176849519
 21
5.5096147642
 31
0.0
  0
LINE
  5
159
330
1F
100
AcDbEntity
  8
0
  6
Continuous
 62
     7
370
    15
100
AcDbLine
 10
13.1494349254
 20
5.5096147642
 30
0.0
 11
13.4101576953
 21
5.0580296802
 31
0.0
  0
LINE
  5
15A
330
1F
100
AcDbEntity
  8
0
  6
Continuous
 62
     7
370
    15
100
AcDbLine
 10
13.4101576953
 20
6.5296147642
 30
0.0
 11
13.1494349254
 21
6.0780296802
 31
0.0
  0
LINE
  5
15B
330
1F
100
AcDbEntity
  8
0
  6
Continuous
 62
     7
370
    15
100
AcDbLine
 10
15.176849519
 20
6.0780296802
 30
0.0
 11
14.9161267492
 21
6.5296147642
 31
0.0
  0
LINE
  5
15C
330
1F
100
AcDbEntity
  8
0
  6
Continuous
 62
     7
370
    15
100
AcDbLine
 10
13.9024194524
 20
4.7738222222
 30
0.0
 11
14.4238649921
 21
4.7738222222
 31
0.0
  0
LINE
  5
15D
330
1F
100
AcDbEntity
  8
0
  6
Continuous
 62
     7
370
    15
100
AcDbLine
 10
14.4238649921
 20
6.8138222222
 30
0.0
 11
13.9024194524
 21
6.8138222222
 31
0.0
  0
ARC
  5
15E
330
1F
100
AcDbEntity
  8
0
  6
Continuous
 62
     7
370
    15
100
AcDbCircle
 10
14.1631422222
 20
5.7938222222
 30
0.0
 40
1.1
100
AcDbArc
 50
270.0
 51
291.7901619806
  0
ARC
  5
15F
330
1F
100
AcDbEntity
  8
0
  6
Continuous
 62
     7
370
    15
100
AcDbCircle
 10
14.1631422222
 20
5.7938222222
 30
0.0
 40
1.1
100
AcDbArc
 50
308.506287141
 51
351.6802337592
  0
ARC
  5
160
330
1F
100
AcDbEntity
  8
0
  6
Continuous
 62
     7
370
    15
100
AcDbCircle
 10
14.1631422222
 20
5.7938222222
 30
0.0
 40
1.1
100
AcDbArc
 50
8.607666436
 51
51.4086583996
  0
ARC
  5
161
330
1F
100
AcDbEntity
  8
0
  6
Continuous
 62
     7
370
    15
100
AcDbCircle
 10
14.1631422222
 20
5.7938222222
 30
0.0
 40
1.100000000000002
100
AcDbArc
 50
68.4324007623
 51
111.4434297754
  0
ARC
  5
162
330
1F
100
AcDbEntity
  8
0
  6
Continuous
 62
     7
370
    15
100
AcDbCircle
 10
14.1631422222
 20
5.7938222222
 30
0.0
 40
1.1
100
AcDbArc
 50
128.1014428388
 51
171.6923946778
  0
ARC
  5
163
330
1F
100
AcDbEntity
  8
0
  6
Continuous
 62
     7
370
    15
100
AcDbCircle
 10
14.1631422222
 20
5.7938222222
 30
0.0
 40
1.100000000000002
100
AcDbArc
 50
188.4413190465
 51
231.826900717
  0
ARC
  5
164
330
1F
100
AcDbEntity
  8
0
  6
Continuous
 62
     7
370
    15
100
AcDbCircle
 10
14.1631422222
 20
5.7938222222
 30
0.0
 40
1.1
100
AcDbArc
 50
248.6032132849
 51
270.0
  0
SPLINE
  5
165
330
1F
100
AcDbEntity
  8
0
  6
Continuous
 62
     7
370
    15
100
AcDbSpline
210
0.0
220
0.0
230
1.0
 70
    24
 71
     3
 72
    22
 73
    18
 74
     0
 42
0.00000001
 43
0.00000001
 40
0.0
 40
0.0
 40
0.0
 40
0.0
 40
0.0625000000000002
 40
0.0625000000000002
 40
0.1250000000000004
 40
0.1250000000000004
 40
0.1875000000000006
 40
0.1875000000000006
 40
0.2500000000000008
 40
0.2500000000000008
 40
0.3750000000000004
 40
0.3750000000000004
 40
0.5000000000000001
 40
0.5000000000000001
 40
0.75
 40
0.75
 40
1.0
 40
1.0
 40
1.0
 40
1.0
 10
14.79822751833082
 20
6.893822222222238
 30
0.0
 10
14.79822751833082
 20
6.893822222222238
 30
0.0
 10
14.79895802466711
 20
6.89255694813252
 30
0.0
 10
14.80167743773668
 20
6.887846786529264
 30
0.0
 10
14.80361101360844
 20
6.884497734879094
 30
0.0
 10
14.80826579228817
 20
6.876435421707801
 30
0.0
 10
14.81092349721615
 20
6.871832141741023
 30
0.0
 10
14.81670140051039
 20
6.861824519674182
 30
0.0
 10
14.81984570321049
 20
6.856378427643226
 30
0.0
 10
14.82956788117479
 20
6.839539121448833
 30
0.0
 10
14.83648677367672
 20
6.827555248103387
 30
0.0
 10
14.85085548251564
 20
6.802667914355217
 30
0.0
 10
14.85825441831252
 20
6.789852581633082
 30
0.0
 10
14.88048469055115
 20
6.751348620649675
 30
0.0
 10
14.89554438320346
 20
6.725264467829505
 30
0.0
 10
14.92591083444631
 20
6.672668231431326
 30
0.0
 10
14.94124177586463
 20
6.646114261966939
 30
0.0
 10
14.95654101917971
 20
6.619615195227857
 30
0.0
  0
SPLINE
  5
166
330
1F
100
AcDbEntity
  8
0
  6
Continuous
 62
     7
370
    15
100
AcDbSpline
210
0.0
220
0.0
230
1.0
 70
    24
 71
     3
 72
    24
 73
    20
 74
     0
 42
0.00000001
 43
0.00000001
 40
0.0
 40
0.0
 40
0.0
 40
0.0
 40
0.2499999999999991
 40
0.2499999999999991
 40
0.3749999999999988
 40
0.3749999999999988
 40
0.4999999999999987
 40
0.4999999999999987
 40
0.6249999999999986
 40
0.6249999999999986
 40
0.7499999999999982
 40
0.7499999999999982
 40
0.8124999999999987
 40
0.8124999999999987
 40
0.8749999999999991
 40
0.8749999999999991
 40
0.9374999999999996
 40
0.9374999999999996
 40
1.0
 40
1.0
 40
1.0
 40
1.0
 10
14.48160051663303
 20
6.893822222222238
 30
0.0
 10
14.51222361705517
 20
6.893822222222238
 30
0.0
 10
14.54279160534391
 20
6.893822222222238
 30
0.0
 10
14.58847915070789
 20
6.893822222222238
 30
0.0
 10
14.60368067279562
 20
6.893822222222238
 30
0.0
 10
14.63400717269587
 20
6.893822222222238
 30
0.0
 10
14.64913296841437
 20
6.893822222222238
 30
0.0
 10
14.67889371346078
 20
6.893822222222238
 30
0.0
 10
14.69361465315543
 20
6.893822222222238
 30
0.0
 10
14.7222528135567
 20
6.893822222222238
 30
0.0
 10
14.73597797584791
 20
6.893822222222236
 30
0.0
 10
14.75514899521908
 20
6.893822222222238
 30
0.0
 10
14.76130060048776
 20
6.893822222222238
 30
0.0
 10
14.77292168148641
 20
6.893822222222238
 30
0.0
 10
14.77828205046028
 20
6.893822222222238
 30
0.0
 10
14.78752581638848
 20
6.893822222222238
 30
0.0
 10
14.79139720391881
 20
6.893822222222238
 30
0.0
 10
14.79673836932197
 20
6.893822222222238
 30
0.0
 10
14.79822751833082
 20
6.893822222222238
 30
0.0
 10
14.79822751833082
 20
6.893822222222238
 30
0.0
  0
SPLINE
  5
167
330
1F
100
AcDbEntity
  8
0
  6
Continuous
 62
     7
370
    15
100
AcDbSpline
210
0.0
220
0.0
230
1.0
 70
    24
 71
     3
 72
    22
 73
    18
 74
     0
 42
0.00000001
 43
0.00000001
 40
0.0
 40
0.0
 40
0.0
 40
0.0
 40
0.2499999999999998
 40
0.2499999999999998
 40
0.3749999999999998
 40
0.3749999999999998
 40
0.4999999999999996
 40
0.4999999999999996
 40
0.625
 40
0.625
 40
0.7500000000000004
 40
0.7500000000000004
 40
0.875000000000001
 40
0.875000000000001
 40
0.9375000000000004
 40
0.9375000000000004
 40
1.0
 40
1.0
 40
1.0
 40
1.0
 10
13.05128513085395
 20
5.519615195227854
 30
0.0
 10
13.03598281490707
 20
5.546119583921318
 30
0.0
 10
13.02065894124386
 20
5.572661311674771
 30
0.0
 10
12.9977526129786
 20
5.61233623604504
 30
0.0
 10
12.99014332116472
 20
5.625515916076294
 30
0.0
 10
12.97499629757475
 20
5.651751330517581
 30
0.0
 10
12.96744004069971
 20
5.664839151340186
 30
0.0
 10
12.95260959573335
 20
5.690526235520772
 30
0.0
 10
12.94531857367319
 20
5.703154656168087
 30
0.0
 10
12.93110260785062
 20
5.727777431251438
 30
0.0
 10
12.9241038353622
 20
5.739899660791991
 30
0.0
 10
12.91119288394632
 20
5.762262084618352
 30
0.0
 10
12.90520949982052
 20
5.772625609925433
 30
0.0
 10
12.89834034809217
 20
5.784523329723841
 30
0.0
 10
12.89639708719733
 20
5.787889156326061
 30
0.0
 10
12.89372092397624
 20
5.792524406994328
 30
0.0
 10
12.89297163000501
 20
5.793822222222312
 30
0.0
 10
12.89297163000501
 20
5.793822222222313
 30
0.0
  0
SPLINE
  5
168
330
1F
100
AcDbEntity
  8
0
  6
Continuous
 62
     7
370
    15
100
AcDbSpline
210
0.0
220
0.0
230
1.0
 70
    24
 71
     3
 72
    22
 73
    18
 74
     0
 42
0.00000001
 43
0.00000001
 40
0.0
 40
0.0
 40
0.0
 40
0.0
 40
0.0624999999999999
 40
0.0624999999999999
 40
0.1249999999999999
 40
0.1249999999999999
 40
0.1874999999999998
 40
0.1874999999999998
 40
0.2499999999999998
 40
0.2499999999999998
 40
0.3750000000000003
 40
0.3750000000000003
 40
0.5000000000000003
 40
0.5000000000000003
 40
0.7500000000000001
 40
0.7500000000000001
 40
1.0
 40
1.0
 40
1.0
 40
1.0
 10
12.89297163000505
 20
5.793822222222237
 30
0.0
 10
12.89297163000505
 20
5.793822222222236
 30
0.0
 10
12.89370213634135
 20
5.795087496311955
 30
0.0
 10
12.89642154941092
 20
5.799797657915211
 30
0.0
 10
12.89835512528267
 20
5.803146709565379
 30
0.0
 10
12.90300990396241
 20
5.811209022736674
 30
0.0
 10
12.90566760889038
 20
5.815812302703452
 30
0.0
 10
12.91144551218462
 20
5.825819924770292
 30
0.0
 10
12.91458981488473
 20
5.831266016801249
 30
0.0
 10
12.92431199284903
 20
5.848105322995641
 30
0.0
 10
12.93123088535095
 20
5.860089196341087
 30
0.0
 10
12.94559959418987
 20
5.884976530089258
 30
0.0
 10
12.95299852998675
 20
5.897791862811393
 30
0.0
 10
12.97522880222539
 20
5.936295823794802
 30
0.0
 10
12.9902884948777
 20
5.962379976614971
 30
0.0
 10
13.02065494612055
 20
6.014976213013149
 30
0.0
 10
13.03598588753886
 20
6.041530182477537
 30
0.0
 10
13.05128513085394
 20
6.068029249216618
 30
0.0
  0
SPLINE
  5
169
330
1F
100
AcDbEntity
  8
0
  6
Continuous
 62
     7
370
    15
100
AcDbSpline
210
0.0
220
0.0
230
1.0
 70
    24
 71
     3
 72
    22
 73
    18
 74
     0
 42
0.00000001
 43
0.00000001
 40
0.0
 40
0.0
 40
0.0
 40
0.0
 40
0.0624999999999999
 40
0.0624999999999999
 40
0.1249999999999998
 40
0.1249999999999998
 40
0.1874999999999997
 40
0.1874999999999997
 40
0.2499999999999996
 40
0.2499999999999996
 40
0.3749999999999993
 40
0.3749999999999993
 40
0.4999999999999997
 40
0.4999999999999997
 40
0.7499999999999998
 40
0.7499999999999998
 40
1.0
 40
1.0
 40
1.0
 40
1.0
 10
15.43331281443941
 20
5.79382222222224
 30
0.0
 10
15.43331281443941
 20
5.79382222222224
 30
0.0
 10
15.43258230810311
 20
5.792556948132522
 30
0.0
 10
15.42986289503354
 20
5.787846786529266
 30
0.0
 10
15.42792931916179
 20
5.784497734879098
 30
0.0
 10
15.42327454048205
 20
5.776435421707803
 30
0.0
 10
15.42061683555407
 20
5.771832141741025
 30
0.0
 10
15.41483893225984
 20
5.761824519674185
 30
0.0
 10
15.41169462955973
 20
5.756378427643229
 30
0.0
 10
15.40197245159543
 20
5.739539121448836
 30
0.0
 10
15.39505355909351
 20
5.727555248103391
 30
0.0
 10
15.38068485025459
 20
5.702667914355221
 30
0.0
 10
15.37328591445771
 20
5.689852581633085
 30
0.0
 10
15.35105564221907
 20
5.651348620649677
 30
0.0
 10
15.33599594956676
 20
5.625264467829507
 30
0.0
 10
15.30562949832392
 20
5.57266823143133
 30
0.0
 10
15.2902985569056
 20
5.546114261966941
 30
0.0
 10
15.27499931359051
 20
5.51961519522786
 30
0.0
  0
SPLINE
  5
16A
330
1F
100
AcDbEntity
  8
0
  6
Continuous
 62
     7
370
    15
100
AcDbSpline
210
0.0
220
0.0
230
1.0
 70
    24
 71
     3
 72
    22
 73
    18
 74
     0
 42
0.00000001
 43
0.00000001
 40
0.0
 40
0.0
 40
0.0
 40
0.0
 40
0.2500000000000004
 40
0.2500000000000004
 40
0.3750000000000008
 40
0.3750000000000008
 40
0.5000000000000011
 40
0.5000000000000011
 40
0.6250000000000014
 40
0.6250000000000014
 40
0.7500000000000011
 40
0.7500000000000011
 40
0.8750000000000009
 40
0.8750000000000009
 40
0.9375000000000004
 40
0.9375000000000004
 40
1.0
 40
1.0
 40
1.0
 40
1.0
 10
15.27499931359051
 20
6.068029249216617
 30
0.0
 10
15.29030162953739
 20
6.041524860523154
 30
0.0
 10
15.30562550320061
 20
6.014983132769702
 30
0.0
 10
15.32853183146586
 20
5.975308208399433
 30
0.0
 10
15.33614112327974
 20
5.962128528368178
 30
0.0
 10
15.35128814686971
 20
5.93589311392689
 30
0.0
 10
15.35884440374475
 20
5.922805293104287
 30
0.0
 10
15.37367484871111
 20
5.8971182089237
 30
0.0
 10
15.38096587077128
 20
5.884489788276387
 30
0.0
 10
15.39518183659384
 20
5.859867013193035
 30
0.0
 10
15.40218060908226
 20
5.847744783652483
 30
0.0
 10
15.41509156049814
 20
5.825382359826121
 30
0.0
 10
15.42107494462394
 20
5.815018834519041
 30
0.0
 10
15.42794409635229
 20
5.803121114720633
 30
0.0
 10
15.42988735724713
 20
5.799755288118413
 30
0.0
 10
15.43256352046821
 20
5.795120037450146
 30
0.0
 10
15.43331281443945
 20
5.793822222222161
 30
0.0
 10
15.43331281443945
 20
5.79382222222216
 30
0.0
  0
SPLINE
  5
16B
330
1F
100
AcDbEntity
  8
0
  6
Continuous
 62
     7
370
    15
100
AcDbSpline
210
0.0
220
0.0
230
1.0
 70
    24
 71
     3
 72
    24
 73
    20
 74
     0
 42
0.00000001
 43
0.00000001
 40
0.0
 40
0.0
 40
0.0
 40
0.0
 40
0.2500000000000004
 40
0.2500000000000004
 40
0.3750000000000003
 40
0.3750000000000003
 40
0.5000000000000002
 40
0.5000000000000002
 40
0.6250000000000001
 40
0.6250000000000001
 40
0.75
 40
0.75
 40
0.8125
 40
0.8125
 40
0.875
 40
0.875
 40
0.9375
 40
0.9375
 40
1.0
 40
1.0
 40
1.0
 40
1.0
 10
13.84468392781143
 20
4.693822222222237
 30
0.0
 10
13.81406082738928
 20
4.693822222222237
 30
0.0
 10
13.78349283910054
 20
4.693822222222237
 30
0.0
 10
13.73780529373657
 20
4.693822222222237
 30
0.0
 10
13.72260377164883
 20
4.693822222222237
 30
0.0
 10
13.69227727174859
 20
4.693822222222237
 30
0.0
 10
13.67715147603008
 20
4.693822222222237
 30
0.0
 10
13.64739073098367
 20
4.693822222222237
 30
0.0
 10
13.63266979128903
 20
4.693822222222237
 30
0.0
 10
13.60403163088776
 20
4.693822222222237
 30
0.0
 10
13.59030646859655
 20
4.693822222222237
 30
0.0
 10
13.57113544922538
 20
4.693822222222237
 30
0.0
 10
13.5649838439567
 20
4.693822222222237
 30
0.0
 10
13.55336276295804
 20
4.693822222222237
 30
0.0
 10
13.54800239398417
 20
4.693822222222237
 30
0.0
 10
13.53875862805597
 20
4.693822222222237
 30
0.0
 10
13.53488724052565
 20
4.693822222222237
 30
0.0
 10
13.52954607512249
 20
4.693822222222237
 30
0.0
 10
13.52805692611364
 20
4.693822222222237
 30
0.0
 10
13.52805692611364
 20
4.693822222222237
 30
0.0
  0
SPLINE
  5
16C
330
1F
100
AcDbEntity
  8
0
  6
Continuous
 62
     7
370
    15
100
AcDbSpline
210
0.0
220
0.0
230
1.0
 70
    24
 71
     3
 72
    22
 73
    18
 74
     0
 42
0.00000001
 43
0.00000001
 40
0.0
 40
0.0
 40
0.0
 40
0.0
 40
0.0624999999999998
 40
0.0624999999999998
 40
0.1249999999999996
 40
0.1249999999999996
 40
0.1874999999999994
 40
0.1874999999999994
 40
0.2499999999999993
 40
0.2499999999999993
 40
0.3749999999999992
 40
0.3749999999999992
 40
0.4999999999999992
 40
0.4999999999999992
 40
0.7499999999999996
 40
0.7499999999999996
 40
1.0
 40
1.0
 40
1.0
 40
1.0
 10
13.52805692611364
 20
4.693822222222237
 30
0.0
 10
13.52805692611364
 20
4.693822222222237
 30
0.0
 10
13.52732641977734
 20
4.695087496311955
 30
0.0
 10
13.52460700670778
 20
4.699797657915211
 30
0.0
 10
13.52267343083602
 20
4.70314670956538
 30
0.0
 10
13.51801865215628
 20
4.711209022736673
 30
0.0
 10
13.51536094722831
 20
4.715812302703452
 30
0.0
 10
13.50958304393407
 20
4.725819924770292
 30
0.0
 10
13.50643874123397
 20
4.731266016801248
 30
0.0
 10
13.49671656326967
 20
4.748105322995642
 30
0.0
 10
13.48979767076774
 20
4.760089196341087
 30
0.0
 10
13.47542896192882
 20
4.784976530089257
 30
0.0
 10
13.46803002613194
 20
4.797791862811392
 30
0.0
 10
13.44579975389331
 20
4.8362958237948
 30
0.0
 10
13.430740061241
 20
4.862379976614969
 30
0.0
 10
13.40037360999815
 20
4.914976213013147
 30
0.0
 10
13.38504266857983
 20
4.941530182477536
 30
0.0
 10
13.36974342526475
 20
4.968029249216616
 30
0.0
  0
SPLINE
  5
16D
330
1F
100
AcDbEntity
  8
0
  6
Continuous
 62
     7
370
    15
100
AcDbSpline
210
0.0
220
0.0
230
1.0
 70
    24
 71
     3
 72
    22
 73
    18
 74
     0
 42
0.00000001
 43
0.00000001
 40
0.0
 40
0.0
 40
0.0
 40
0.0
 40
0.0624999999999996
 40
0.0624999999999996
 40
0.1249999999999993
 40
0.1249999999999993
 40
0.1874999999999989
 40
0.1874999999999989
 40
0.2499999999999986
 40
0.2499999999999986
 40
0.3749999999999989
 40
0.3749999999999989
 40
0.4999999999999992
 40
0.4999999999999992
 40
0.7499999999999997
 40
0.7499999999999997
 40
1.0
 40
1.0
 40
1.0
 40
1.0
 10
14.79822751833082
 20
4.693822222222237
 30
0.0
 10
14.79822751833082
 20
4.693822222222237
 30
0.0
 10
14.79675525794572
 20
4.693822222222237
 30
0.0
 10
14.79134183496582
 20
4.693822222222238
 30
0.0
 10
14.78744670890926
 20
4.693822222222237
 30
0.0
 10
14.77818490853802
 20
4.693822222222237
 30
0.0
 10
14.7728779875635
 20
4.693822222222237
 30
0.0
 10
14.76129521429079
 20
4.693822222222238
 30
0.0
 10
14.75501828296821
 20
4.693822222222237
 30
0.0
 10
14.73563366770888
 20
4.693822222222237
 30
0.0
 10
14.72177219888931
 20
4.693822222222237
 30
0.0
 10
14.6929386509782
 20
4.693822222222238
 30
0.0
 10
14.67829531889558
 20
4.693822222222237
 30
0.0
 10
14.63392781921952
 20
4.693822222222237
 30
0.0
 10
14.60377105041703
 20
4.693822222222237
 30
0.0
 10
14.54285116349664
 20
4.693822222222237
 30
0.0
 10
14.51218288700445
 20
4.693822222222237
 30
0.0
 10
14.48160051663303
 20
4.693822222222237
 30
0.0
  0
SPLINE
  5
16E
330
1F
100
AcDbEntity
  8
0
  6
Continuous
 62
     7
370
    15
100
AcDbSpline
210
0.0
220
0.0
230
1.0
 70
    24
 71
     3
 72
    22
 73
    18
 74
     0
 42
0.00000001
 43
0.00000001
 40
0.0
 40
0.0
 40
0.0
 40
0.0
 40
0.250000000000001
 40
0.250000000000001
 40
0.3750000000000008
 40
0.3750000000000008
 40
0.5000000000000006
 40
0.5000000000000006
 40
0.6250000000000002
 40
0.6250000000000002
 40
0.7500000000000001
 40
0.7500000000000001
 40
0.8749999999999999
 40
0.8749999999999999
 40
0.9375
 40
0.9375
 40
1.0
 40
1.0
 40
1.0
 40
1.0
 10
14.95654101917971
 20
4.968029249216618
 30
0.0
 10
14.94123870323283
 20
4.941524860523154
 30
0.0
 10
14.92591482956962
 20
4.914983132769701
 30
0.0
 10
14.90300850130436
 20
4.875308208399432
 30
0.0
 10
14.89539920949049
 20
4.862128528368178
 30
0.0
 10
14.88025218590051
 20
4.835893113926891
 30
0.0
 10
14.87269592902547
 20
4.822805293104286
 30
0.0
 10
14.85786548405912
 20
4.797118208923701
 30
0.0
 10
14.85057446199895
 20
4.784489788276387
 30
0.0
 10
14.83635849617638
 20
4.759867013193034
 30
0.0
 10
14.82935972368796
 20
4.747744783652482
 30
0.0
 10
14.81644877227208
 20
4.725382359826122
 30
0.0
 10
14.81046538814628
 20
4.715018834519041
 30
0.0
 10
14.80359623641793
 20
4.703121114720633
 30
0.0
 10
14.80165297552309
 20
4.699755288118412
 30
0.0
 10
14.79897681230201
 20
4.695120037450145
 30
0.0
 10
14.79822751833077
 20
4.693822222222161
 30
0.0
 10
14.79822751833077
 20
4.693822222222161
 30
0.0
  0
SPLINE
  5
16F
330
1F
100
AcDbEntity
  8
0
  6
Continuous
 62
     7
370
    15
100
AcDbSpline
210
0.0
220
0.0
230
1.0
 70
    24
 71
     3
 72
    22
 73
    18
 74
     0
 42
0.00000001
 43
0.00000001
 40
0.0
 40
0.0
 40
0.0
 40
0.0
 40
0.0625000000000002
 40
0.0625000000000002
 40
0.1250000000000005
 40
0.1250000000000005
 40
0.1875000000000007
 40
0.1875000000000007
 40
0.2500000000000009
 40
0.2500000000000009
 40
0.3750000000000008
 40
0.3750000000000008
 40
0.5000000000000007
 40
0.5000000000000007
 40
0.7500000000000003
 40
0.7500000000000003
 40
1.0
 40
1.0
 40
1.0
 40
1.0
 10
13.52805692611364
 20
6.893822222222238
 30
0.0
 10
13.52805692611364
 20
6.893822222222238
 30
0.0
 10
13.52952918649873
 20
6.893822222222238
 30
0.0
 10
13.53494260947863
 20
6.893822222222238
 30
0.0
 10
13.5388377355352
 20
6.893822222222238
 30
0.0
 10
13.54809953590644
 20
6.893822222222236
 30
0.0
 10
13.55340645688096
 20
6.893822222222238
 30
0.0
 10
13.56498923015367
 20
6.893822222222236
 30
0.0
 10
13.57126616147625
 20
6.893822222222238
 30
0.0
 10
13.59065077673558
 20
6.893822222222238
 30
0.0
 10
13.60451224555515
 20
6.893822222222236
 30
0.0
 10
13.63334579346626
 20
6.893822222222238
 30
0.0
 10
13.64798912554888
 20
6.893822222222238
 30
0.0
 10
13.69235662522494
 20
6.893822222222236
 30
0.0
 10
13.72251339402742
 20
6.893822222222238
 30
0.0
 10
13.78343328094783
 20
6.893822222222238
 30
0.0
 10
13.81410155744001
 20
6.893822222222238
 30
0.0
 10
13.84468392781143
 20
6.893822222222238
 30
0.0
  0
SPLINE
  5
170
330
1F
100
AcDbEntity
  8
0
  6
Continuous
 62
     7
370
    15
100
AcDbSpline
210
0.0
220
0.0
230
1.0
 70
    24
 71
     3
 72
    22
 73
    18
 74
     0
 42
0.00000001
 43
0.00000001
 40
0.0
 40
0.0
 40
0.0
 40
0.0
 40
0.249999999999999
 40
0.249999999999999
 40
0.3749999999999991
 40
0.3749999999999991
 40
0.4999999999999991
 40
0.4999999999999991
 40
0.6249999999999991
 40
0.6249999999999991
 40
0.7499999999999992
 40
0.7499999999999992
 40
0.8749999999999992
 40
0.8749999999999992
 40
0.9374999999999996
 40
0.9374999999999996
 40
1.0
 40
1.0
 40
1.0
 40
1.0
 10
13.36974342526475
 20
6.619615195227856
 30
0.0
 10
13.38504574121163
 20
6.646119583921317
 30
0.0
 10
13.40036961487484
 20
6.672661311674771
 30
0.0
 10
13.42327594314009
 20
6.71233623604504
 30
0.0
 10
13.43088523495397
 20
6.725515916076295
 30
0.0
 10
13.44603225854395
 20
6.751751330517583
 30
0.0
 10
13.45358851541898
 20
6.764839151340186
 30
0.0
 10
13.46841896038534
 20
6.790526235520773
 30
0.0
 10
13.47570998244551
 20
6.803154656168086
 30
0.0
 10
13.48992594826808
 20
6.827777431251439
 30
0.0
 10
13.49692472075649
 20
6.839899660791991
 30
0.0
 10
13.50983567217238
 20
6.862262084618353
 30
0.0
 10
13.51581905629817
 20
6.872625609925433
 30
0.0
 10
13.52268820802653
 20
6.884523329723841
 30
0.0
 10
13.52463146892136
 20
6.887889156326061
 30
0.0
 10
13.52730763214245
 20
6.892524406994328
 30
0.0
 10
13.52805692611368
 20
6.893822222222312
 30
0.0
 10
13.52805692611368
 20
6.893822222222314
 30
0.0
  0
LINE
  5
171
330
1F
100
AcDbEntity
  8
0
  6
Continuous
 62
     7
370
    15
100
AcDbLine
 10
14.4816005166
 20
6.8938222222
 30
0.0
 11
14.1631422222
 21
6.8938222222
 31
0.0
  0
LINE
  5
172
330
1F
100
AcDbEntity
  8
0
  6
Continuous
 62
     7
370
    15
100
AcDbLine
 10
15.1157701664
 20
6.3438222222
 30
0.0
 11
14.9565410192
 21
6.6196151952
 31
0.0
  0
LINE
  5
173
330
1F
100
AcDbEntity
  8
0
  6
Continuous
 62
     7
370
    15
100
AcDbLine
 10
14.1631422222
 20
6.8938222222
 30
0.0
 11
13.8446839278
 21
6.8938222222
 31
0.0
  0
LINE
  5
174
330
1F
100
AcDbEntity
  8
0
  6
Continuous
 62
     7
370
    15
100
AcDbLine
 10
13.3697434253
 20
6.6196151952
 30
0.0
 11
13.2105142781
 21
6.3438222222
 31
0.0
  0
LINE
  5
175
330
1F
100
AcDbEntity
  8
0
  6
Continuous
 62
     7
370
    15
100
AcDbLine
 10
15.1157701664
 20
5.2438222222
 30
0.0
 11
15.2749993136
 21
5.5196151952
 31
0.0
  0
LINE
  5
176
330
1F
100
AcDbEntity
  8
0
  6
Continuous
 62
     7
370
    15
100
AcDbLine
 10
15.2749993136
 20
6.0680292492
 30
0.0
 11
15.1157701664
 21
6.3438222222
 31
0.0
  0
LINE
  5
177
330
1F
100
AcDbEntity
  8
0
  6
Continuous
 62
     7
370
    15
100
AcDbLine
 10
13.0512851309
 20
5.5196151952
 30
0.0
 11
13.2105142781
 21
5.2438222222
 31
0.0
  0
LINE
  5
178
330
1F
100
AcDbEntity
  8
0
  6
Continuous
 62
     7
370
    15
100
AcDbLine
 10
13.2105142781
 20
6.3438222222
 30
0.0
 11
13.0512851309
 21
6.0680292492
 31
0.0
  0
LINE
  5
179
330
1F
100
AcDbEntity
  8
0
  6
Continuous
 62
     7
370
    15
100
AcDbLine
 10
14.1631422222
 20
4.6938222222
 30
0.0
 11
14.4816005166
 21
4.6938222222
 31
0.0
  0
LINE
  5
17A
330
1F
100
AcDbEntity
  8
0
  6
Continuous
 62
     7
370
    15
100
AcDbLine
 10
14.9565410192
 20
4.9680292492
 30
0.0
 11
15.1157701664
 21
5.2438222222
 31
0.0
  0
LINE
  5
17B
330
1F
100
AcDbEntity
  8
0
  6
Continuous
 62
     7
370
    15
100
AcDbLine
 10
13.8446839278
 20
4.6938222222
 30
0.0
 11
14.1631422222
 21
4.6938222222
 31
0.0
  0
LINE
  5
17C
330
1F
100
AcDbEntity
  8
0
  6
Continuous
 62
     7
370
    15
100
AcDbLine
 10
13.2105142781
 20
5.2438222222
 30
0.0
 11
13.3697434253
 21
4.9680292492
 31
0.0
  0
ARC
  5
17D
330
1F
100
AcDbEntity
  8
0
  6
Continuous
 62
     8
370
    15
100
AcDbCircle
 10
14.1631422222
 20
5.7938222222
 30
0.0
 40
1.145170592217176
100
AcDbArc
 50
46.1461286
 51
56.9433149745
  0
ARC
  5
17E
330
1F
100
AcDbEntity
  8
0
  6
Continuous
 62
     8
370
    15
100
AcDbCircle
 10
14.1631422222
 20
5.7938222222
 30
0.0
 40
1.145170592217177
100
AcDbArc
 50
63.3430023841
 51
73.8538714
  0
ARC
  5
17F
330
1F
100
AcDbEntity
  8
0
  6
Continuous
 62
     8
370
    15
100
AcDbCircle
 10
14.1631422222
 20
5.7938222222
 30
0.0
 40
1.145170592217178
100
AcDbArc
 50
166.1461286
 51
176.9433149745
  0
ARC
  5
180
330
1F
100
AcDbEntity
  8
0
  6
Continuous
 62
     8
370
    15
100
AcDbCircle
 10
14.1631422222
 20
5.7938222222
 30
0.0
 40
1.145170592217178
100
AcDbArc
 50
183.3430023841
 51
193.8538714
  0
ARC
  5
181
330
1F
100
AcDbEntity
  8
0
  6
Continuous
 62
     8
370
    15
100
AcDbCircle
 10
14.1631422222
 20
5.7938222222
 30
0.0
 40
1.145170592217174
100
AcDbArc
 50
346.1461286
 51
356.9433149745
  0
ARC
  5
182
330
1F
100
AcDbEntity
  8
0
  6
Continuous
 62
     8
370
    15
100
AcDbCircle
 10
14.1631422222
 20
5.7938222222
 30
0.0
 40
1.145170592217175
100
AcDbArc
 50
3.3430023841
 51
13.8538714
  0
ARC
  5
183
330
1F
100
AcDbEntity
  8
0
  6
Continuous
 62
     8
370
    15
100
AcDbCircle
 10
14.1631422222
 20
5.7938222222
 30
0.0
 40
1.145170592217176
100
AcDbArc
 50
226.1461286
 51
236.9433149745
  0
ARC
  5
184
330
1F
100
AcDbEntity
  8
0
  6
Continuous
 62
     8
370
    15
100
AcDbCircle
 10
14.1631422222
 20
5.7938222222
 30
0.0
 40
1.145170592217176
100
AcDbArc
 50
243.3430023841
 51
253.8538714
  0
ARC
  5
185
330
1F
100
AcDbEntity
  8
0
  6
Continuous
 62
     8
370
    15
100
AcDbCircle
 10
14.1631422222
 20
5.7938222222
 30
0.0
 40
1.145170592217176
100
AcDbArc
 50
286.1461286
 51
296.9433149745
  0
ARC
  5
186
330
1F
100
AcDbEntity
  8
0
  6
Continuous
 62
     8
370
    15
100
AcDbCircle
 10
14.1631422222
 20
5.7938222222
 30
0.0
 40
1.145170592217174
100
AcDbArc
 50
303.3430023841
 51
313.8538714
  0
ARC
  5
187
330
1F
100
AcDbEntity
  8
0
  6
Continuous
 62
     8
370
    15
100
AcDbCircle
 10
14.1631422222
 20
5.7938222222
 30
0.0
 40
1.145170592217177
100
AcDbArc
 50
106.1461286
 51
116.9433149745
  0
ARC
  5
188
330
1F
100
AcDbEntity
  8
0
  6
Continuous
 62
     8
370
    15
100
AcDbCircle
 10
14.1631422222
 20
5.7938222222
 30
0.0
 40
1.145170592217177
100
AcDbArc
 50
123.3430023841
 51
133.8538714
  0
ENDSEC
  0
SECTION
  2
OBJECTS
  0
DICTIONARY
  5
C
330
0
100
AcDbDictionary
281
     1
  3
ACAD_GROUP
350
D
  3
ACAD_LAYOUT
350
1A
  3
ACAD_MLINESTYLE
350
17
  3
ACAD_PLOTSETTINGS
350
19
  3
ACAD_PLOTSTYLENAME
350
E
  0
DICTIONARY
  5
D
102
{ACAD_REACTORS
330
C
102
}
330
C
100
AcDbDictionary
281
     1
  0
DICTIONARY
  5
1A
102
{ACAD_REACTORS
330
C
102
}
330
C
100
AcDbDictionary
281
     1
  3
Layout1
350
1E
  3
Layout2
350
26
  3
Model
350
22
  0
DICTIONARY
  5
17
102
{ACAD_REACTORS
330
C
102
}
330
C
100
AcDbDictionary
281
     1
  3
Standard
350
18
  0
DICTIONARY
  5
19
102
{ACAD_REACTORS
330
C
102
}
330
C
100
AcDbDictionary
281
     1
  0
ACDBDICTIONARYWDFLT
  5
E
102
{ACAD_REACTORS
330
C
102
}
330
C
100
AcDbDictionary
281
     1
  3
Normal
350
F
100
AcDbDictionaryWithDefault
340
F
  0
LAYOUT
  5
1E
102
{ACAD_REACTORS
330
1A
102
}
330
1A
100
AcDbPlotSettings
  1

  2
none_device
  4

  6

 40
0.0
 41
0.0
 42
0.0
 43
0.0
 44
0.0
 45
0.0
 46
0.0
 47
0.0
 48
0.0
 49
0.0
140
0.0
141
0.0
142
1.0
143
1.0
 70
   688
 72
     0
 73
     0
 74
     5
  7

 75
    16
147
1.0
148
0.0
149
0.0
100
AcDbLayout
  1
Layout1
 70
     1
 71
     1
 10
0.0
 20
0.0
 11
12.0
 21
9.0
 12
0.0
 22
0.0
 32
0.0
 14
1.0000000000E+20
 24
1.0000000000E+20
 34
1.0000000000E+20
 15
-1.0000000000E+20
 25
-1.0000000000E+20
 35
-1.0000000000E+20
146
0.0
 13
0.0
 23
0.0
 33
0.0
 16
1.0
 26
0.0
 36
0.0
 17
0.0
 27
1.0
 37
0.0
 76
     0
330
1B
  0
LAYOUT
  5
26
102
{ACAD_REACTORS
330
1A
102
}
330
1A
100
AcDbPlotSettings
  1

  2
none_device
  4

  6

 40
0.0
 41
0.0
 42
0.0
 43
0.0
 44
0.0
 45
0.0
 46
0.0
 47
0.0
 48
0.0
 49
0.0
140
0.0
141
0.0
142
1.0
143
1.0
 70
   688
 72
     0
 73
     0
 74
     5
  7

 75
    16
147
1.0
148
0.0
149
0.0
100
AcDbLayout
  1
Layout2
 70
     1
 71
     2
 10
0.0
 20
0.0
 11
0.0
 21
0.0
 12
0.0
 22
0.0
 32
0.0
 14
0.0
 24
0.0
 34
0.0
 15
0.0
 25
0.0
 35
0.0
146
0.0
 13
0.0
 23
0.0
 33
0.0
 16
1.0
 26
0.0
 36
0.0
 17
0.0
 27
1.0
 37
0.0
 76
     0
330
23
  0
LAYOUT
  5
22
102
{ACAD_REACTORS
330
1A
102
}
330
1A
100
AcDbPlotSettings
  1

  2
none_device
  4

  6

 40
0.0
 41
0.0
 42
0.0
 43
0.0
 44
0.0
 45
0.0
 46
0.0
 47
0.0
 48
0.0
 49
0.0
140
0.0
141
0.0
142
1.0
143
1.0
 70
  1712
 72
     0
 73
     0
 74
     0
  7

 75
     0
147
1.0
148
0.0
149
0.0
100
AcDbLayout
  1
Model
 70
     1
 71
     0
 10
0.0
 20
0.0
 11
17.0
 21
11.0
 12
0.0
 22
0.0
 32
0.0
 14
0.0
 24
0.0
 34
0.0
 15
17.0
 25
11.0
 35
0.0
146
0.0
 13
0.0
 23
0.0
 33
0.0
 16
1.0
 26
0.0
 36
0.0
 17
0.0
 27
1.0
 37
0.0
 76
     0
330
1F
331
29
  0
MLINESTYLE
  5
18
102
{ACAD_REACTORS
330
17
102
}
330
17
100
AcDbMlineStyle
  2
Standard
 70
     0
  3

 62
   256
 51
90.0
 52
90.0
 71
     2
 49
0.5
 62
   256
  6
BYLAYER
 49
-0.5
 62
   256
  6
BYLAYER
  0
ACDBPLACEHOLDER
  5
F
102
{ACAD_REACTORS
330
E
102
}
330
E
  0
ENDSEC
  0
EOF
