  0
SECTION
  2
HEADER
  9
$ACADVER
  1
AC1015
  9
$ACADMAINTVER
 70
     6
  9
$DWGCODEPAGE
  3
ANSI_1252
  9
$INSBASE
 10
0.0
 20
0.0
 30
0.0
  9
$EXTMIN
 10
0.0
 20
0.0
 30
0.0
  9
$EXTMAX
 10
17.0
 20
11.0
 30
0.0
  9
$LIMMIN
 10
0.0
 20
0.0
  9
$LIMMAX
 10
17.0
 20
11.0
  9
$ORTHOMODE
 70
     0
  9
$REGENMODE
 70
     1
  9
$FILLMODE
 70
     1
  9
$QTEXTMODE
 70
     0
  9
$MIRRTEXT
 70
     1
  9
$LTSCALE
 40
1.0
  9
$ATTMODE
 70
     1
  9
$TEXTSIZE
 40
0.1377952756
  9
$TRACEWID
 40
0.05
  9
$TEXTSTYLE
  7
Standard
  9
$CLAYER
  8
0
  9
$CELTYPE
  6
ByLayer
  9
$CECOLOR
 62
   256
  9
$CELTSCALE
 40
1.0
  9
$DISPSILH
 70
     0
  9
$DIMSCALE
 40
1.0
  9
$DIMASZ
 40
0.2
  9
$DIMEXO
 40
0.05
  9
$DIMDLI
 40
0.38
  9
$DIMRND
 40
0.0
  9
$DIMDLE
 40
0.0
  9
$DIMEXE
 40
0.125
  9
$DIMTP
 40
0.0
  9
$DIMTM
 40
0.0
  9
$DIMTXT
 40
0.1
  9
$DIMCEN
 40
0.09
  9
$DIMTSZ
 40
0.0
  9
$DIMTOL
 70
     0
  9
$DIMLIM
 70
     0
  9
$DIMTIH
 70
     1
  9
$DIMTOH
 70
     1
  9
$DIMSE1
 70
     0
  9
$DIMSE2
 70
     0
  9
$DIMTAD
 70
     0
  9
$DIMZIN
 70
     1
  9
$DIMBLK
  1

  9
$DIMASO
 70
     1
  9
$DIMSHO
 70
     1
  9
$DIMPOST
  1

  9
$DIMAPOST
  1

  9
$DIMALT
 70
     0
  9
$DIMALTD
 70
     2
  9
$DIMALTF
 40
25.4
  9
$DIMLFAC
 40
1.0
  9
$DIMTOFL
 70
     0
  9
$DIMTVP
 40
0.0
  9
$DIMTIX
 70
     0
  9
$DIMSOXD
 70
     0
  9
$DIMSAH
 70
     0
  9
$DIMBLK1
  1

  9
$DIMBLK2
  1

  9
$DIMSTYLE
  2
Standard
  9
$DIMCLRD
 70
     0
  9
$DIMCLRE
 70
     0
  9
$DIMCLRT
 70
     0
  9
$DIMTFAC
 40
1.0
  9
$DIMGAP
 40
0.06
  9
$DIMJUST
 70
     0
  9
$DIMSD1
 70
     0
  9
$DIMSD2
 70
     0
  9
$DIMTOLJ
 70
     1
  9
$DIMTZIN
 70
     1
  9
$DIMALTZ
 70
     0
  9
$DIMALTTZ
 70
     0
  9
$DIMUPT
 70
     0
  9
$DIMDEC
 70
     4
  9
$DIMTDEC
 70
     3
  9
$DIMALTU
 70
     2
  9
$DIMALTTD
 70
     2
  9
$DIMTXSTY
  7
Standard
  9
$DIMAUNIT
 70
     0
  9
$DIMADEC
 70
     0
  9
$DIMALTRND
 40
0.0
  9
$DIMAZIN
 70
     0
  9
$DIMDSEP
 70
    46
  9
$DIMATFIT
 70
     3
  9
$DIMFRAC
 70
     0
  9
$DIMLDRBLK
  1

  9
$DIMLUNIT
 70
     2
  9
$DIMLWD
 70
    -2
  9
$DIMLWE
 70
    -2
  9
$DIMTMOVE
 70
     0
  9
$LUNITS
 70
     2
  9
$LUPREC
 70
     4
  9
$SKETCHINC
 40
0.1
  9
$FILLETRAD
 40
0.5
  9
$AUNITS
 70
     0
  9
$AUPREC
 70
     0
  9
$MENU
  1
.
  9
$ELEVATION
 40
0.0
  9
$PELEVATION
 40
0.0
  9
$THICKNESS
 40
0.0
  9
$LIMCHECK
 70
     0
  9
$CHAMFERA
 40
0.5
  9
$CHAMFERB
 40
0.5
  9
$CHAMFERC
 40
1.0
  9
$CHAMFERD
 40
0.0
  9
$SKPOLY
 70
     0
  9
$TDCREATE
 40
2455854.407859445
  9
$TDUCREATE
 40
2455854.616192778
  9
$TDUPDATE
 40
2455854.407859456
  9
$TDUUPDATE
 40
2455854.616192789
  9
$TDINDWG
 40
0.0000000116
  9
$TDUSRTIMER
 40
0.0000000116
  9
$USRTIMER
 70
     1
  9
$ANGBASE
 50
0.0
  9
$ANGDIR
 70
     0
  9
$PDMODE
 70
     0
  9
$PDSIZE
 40
-1.0
  9
$PLINEWID
 40
0.0
  9
$SPLFRAME
 70
     0
  9
$SPLINETYPE
 70
     6
  9
$SPLINESEGS
 70
     8
  9
$HANDSEED
  5
1A1
  9
$SURFTAB1
 70
     6
  9
$SURFTAB2
 70
     6
  9
$SURFTYPE
 70
     6
  9
$SURFU
 70
     6
  9
$SURFV
 70
     6
  9
$UCSBASE
  2

  9
$UCSNAME
  2

  9
$UCSORG
 10
0.0
 20
0.0
 30
0.0
  9
$UCSXDIR
 10
1.0
 20
0.0
 30
0.0
  9
$UCSYDIR
 10
0.0
 20
1.0
 30
0.0
  9
$UCSORTHOREF
  2

  9
$UCSORTHOVIEW
 70
     0
  9
$UCSORGTOP
 10
0.0
 20
0.0
 30
0.0
  9
$UCSORGBOTTOM
 10
0.0
 20
0.0
 30
0.0
  9
$UCSORGLEFT
 10
0.0
 20
0.0
 30
0.0
  9
$UCSORGRIGHT
 10
0.0
 20
0.0
 30
0.0
  9
$UCSORGFRONT
 10
0.0
 20
0.0
 30
0.0
  9
$UCSORGBACK
 10
0.0
 20
0.0
 30
0.0
  9
$PUCSBASE
  2

  9
$PUCSNAME
  2

  9
$PUCSORG
 10
0.0
 20
0.0
 30
0.0
  9
$PUCSXDIR
 10
1.0
 20
0.0
 30
0.0
  9
$PUCSYDIR
 10
0.0
 20
1.0
 30
0.0
  9
$PUCSORTHOREF
  2

  9
$PUCSORTHOVIEW
 70
     0
  9
$PUCSORGTOP
 10
0.0
 20
0.0
 30
0.0
  9
$PUCSORGBOTTOM
 10
0.0
 20
0.0
 30
0.0
  9
$PUCSORGLEFT
 10
0.0
 20
0.0
 30
0.0
  9
$PUCSORGRIGHT
 10
0.0
 20
0.0
 30
0.0
  9
$PUCSORGFRONT
 10
0.0
 20
0.0
 30
0.0
  9
$PUCSORGBACK
 10
0.0
 20
0.0
 30
0.0
  9
$USERI1
 70
     0
  9
$USERI2
 70
     0
  9
$USERI3
 70
     0
  9
$USERI4
 70
     0
  9
$USERI5
 70
     0
  9
$USERR1
 40
0.0
  9
$USERR2
 40
0.0
  9
$USERR3
 40
0.0
  9
$USERR4
 40
0.0
  9
$USERR5
 40
0.0
  9
$WORLDVIEW
 70
     1
  9
$SHADEDGE
 70
     3
  9
$SHADEDIF
 70
    70
  9
$TILEMODE
 70
     1
  9
$MAXACTVP
 70
    64
  9
$PINSBASE
 10
0.0
 20
0.0
 30
0.0
  9
$PLIMCHECK
 70
     0
  9
$PEXTMIN
 10
1.0000000000E+20
 20
1.0000000000E+20
 30
1.0000000000E+20
  9
$PEXTMAX
 10
-1.0000000000E+20
 20
-1.0000000000E+20
 30
-1.0000000000E+20
  9
$PLIMMIN
 10
0.0
 20
0.0
  9
$PLIMMAX
 10
12.0
 20
9.0
  9
$UNITMODE
 70
     0
  9
$VISRETAIN
 70
     1
  9
$PLINEGEN
 70
     0
  9
$PSLTSCALE
 70
     1
  9
$TREEDEPTH
 70
  3020
  9
$CMLSTYLE
  2
Standard
  9
$CMLJUST
 70
     0
  9
$CMLSCALE
 40
1.0
  9
$PROXYGRAPHICS
 70
     1
  9
$MEASUREMENT
 70
     0
  9
$CELWEIGHT
370
    -1
  9
$ENDCAPS
280
     0
  9
$JOINSTYLE
280
     0
  9
$LWDISPLAY
290
     1
  9
$INSUNITS
 70
     1
  9
$HYPERLINKBASE
  1

  9
$STYLESHEET
  1

  9
$XEDIT
290
     1
  9
$CEPSNTYPE
380
     0
  9
$PSTYLEMODE
290
     1
  9
$FINGERPRINTGUID
  2
{C145DF1E-DD5E-422A-9B1C-1313809D43AA}
  9
$VERSIONGUID
  2
{FAEB1C32-E019-11D5-929B-00C0DF256EC4}
  9
$EXTNAMES
290
     1
  9
$PSVPSCALE
 40
0.0
  9
$OLESTARTUP
290
     0
  0
ENDSEC
  0
SECTION
  2
CLASSES
  0
CLASS
  1
ACDBDICTIONARYWDFLT
  2
AcDbDictionaryWithDefault
  3
ObjectDBX Classes
 90
        0
280
     0
281
     0
  0
CLASS
  1
VISUALSTYLE
  2
AcDbVisualStyle
  3
ObjectDBX Classes
 90
     4095
280
     0
281
     0
  0
CLASS
  1
MATERIAL
  2
AcDbMaterial
  3
ObjectDBX Classes
 90
     1153
280
     0
281
     0
  0
CLASS
  1
ACDBPLACEHOLDER
  2
AcDbPlaceHolder
  3
ObjectDBX Classes
 90
        0
280
     0
281
     0
  0
CLASS
  1
LAYOUT
  2
AcDbLayout
  3
ObjectDBX Classes
 90
        0
280
     0
281
     0
  0
ENDSEC
  0
SECTION
  2
TABLES
  0
TABLE
  2
VPORT
  5
8
330
0
100
AcDbSymbolTable
 70
     1
  0
VPORT
  5
29
330
8
100
AcDbSymbolTableRecord
100
AcDbViewportTableRecord
  2
*Active
 70
     0
 10
0.0
 20
0.0
 11
1.0
 21
1.0
 12
8.5
 22
5.5
 13
0.0
 23
0.0
 14
0.5
 24
0.5
 15
0.5
 25
0.5
 16
0.0
 26
0.0
 36
1.0
 17
0.0
 27
0.0
 37
0.0
 40
11.0
 41
1.5454545455
 42
50.0
 43
0.0
 44
0.0
 50
0.0
 51
0.0
 71
     0
 72
  2000
 73
     1
 74
     3
 75
     0
 76
     0
 77
     0
 78
     0
281
     0
 65
     1
110
0.0
120
0.0
130
0.0
111
1.0
121
0.0
131
0.0
112
0.0
122
1.0
132
0.0
 79
     0
146
0.0
  0
ENDTAB
  0
TABLE
  2
LTYPE
  5
5
330
0
100
AcDbSymbolTable
 70
     6
  0
LTYPE
  5
14
330
5
100
AcDbSymbolTableRecord
100
AcDbLinetypeTableRecord
  2
ByBlock
 70
     0
  3

 72
    65
 73
     0
 40
0.0
  0
LTYPE
  5
15
330
5
100
AcDbSymbolTableRecord
100
AcDbLinetypeTableRecord
  2
ByLayer
 70
     0
  3

 72
    65
 73
     0
 40
0.0
  0
LTYPE
  5
16
330
5
100
AcDbSymbolTableRecord
100
AcDbLinetypeTableRecord
  2
Continuous
 70
     0
  3
Solid line
 72
    65
 73
     0
 40
0.0
  0
LTYPE
  5
3F
330
5
100
AcDbSymbolTableRecord
100
AcDbLinetypeTableRecord
  2
HIDDEN
 70
     0
  3
Hidden __ __ __ __ __ __ __ __ __ __ __ __ __ __
 72
    65
 73
     2
 40
0.075
 49
0.05
 74
     0
 49
-0.025
 74
     0
  0
LTYPE
  5
40
330
5
100
AcDbSymbolTableRecord
100
AcDbLinetypeTableRecord
  2
PHANTOM
 70
     0
  3
Phantom ______  __  __  ______  __  __  ______
 72
    65
 73
     6
 40
0.5
 49
0.25
 74
     0
 49
-0.05
 74
     0
 49
0.05
 74
     0
 49
-0.05
 74
     0
 49
0.05
 74
     0
 49
-0.05
 74
     0
  0
LTYPE
  5
41
330
5
100
AcDbSymbolTableRecord
100
AcDbLinetypeTableRecord
  2
CENTER
 70
     0
  3
Center ____ _ ____ _ ____ _ ____ _ ____ _ ____
 72
    65
 73
     4
 40
0.4
 49
0.25
 74
     0
 49
-0.05
 74
     0
 49
0.05
 74
     0
 49
-0.05
 74
     0
  0
LTYPE
  5
42
330
5
100
AcDbSymbolTableRecord
100
AcDbLinetypeTableRecord
  2
CENTERX2
 70
     0
  3
Center (2x) ________  __  ________  __  _____
 72
    65
 73
     4
 40
0.8
 49
0.5
 74
     0
 49
-0.1
 74
     0
 49
0.1
 74
     0
 49
-0.1
 74
     0
  0
LTYPE
  5
43
330
5
100
AcDbSymbolTableRecord
100
AcDbLinetypeTableRecord
  2
DOT2
 70
     0
  3
Dot (.5x) ........................................
 72
    65
 73
     2
 40
0.025
 49
0.0
 74
     0
 49
-0.025
 74
     0
  0
ENDTAB
  0
TABLE
  2
LAYER
  5
2
330
0
100
AcDbSymbolTable
 70
     7
  0
LAYER
  5
10
330
2
100
AcDbSymbolTableRecord
100
AcDbLayerTableRecord
  2
0
 70
     0
 62
     7
  6
Continuous
370
    -3
390
F
  0
LAYER
  5
44
330
2
100
AcDbSymbolTableRecord
100
AcDbLayerTableRecord
  2
SLD-0
 70
     0
 62
     7
  6
Continuous
370
    -3
390
F
  0
LAYER
  5
45
330
2
100
AcDbSymbolTableRecord
100
AcDbLayerTableRecord
  2
BORD
 70
     0
 62
     7
  6
Continuous
370
    -3
390
F
  0
LAYER
  5
46
330
2
100
AcDbSymbolTableRecord
100
AcDbLayerTableRecord
  2
TEXT
 70
     0
 62
     1
  6
Continuous
370
    -3
390
F
  0
LAYER
  5
47
330
2
100
AcDbSymbolTableRecord
100
AcDbLayerTableRecord
  2
TEXTF
 70
     0
 62
   150
  6
Continuous
370
    -3
390
F
  0
LAYER
  5
48
330
2
100
AcDbSymbolTableRecord
100
AcDbLayerTableRecord
  2
BTEXTF
 70
     0
 62
     5
  6
Continuous
370
    -3
390
F
  0
LAYER
  5
49
330
2
100
AcDbSymbolTableRecord
100
AcDbLayerTableRecord
  2
OBJ
 70
     0
 62
     7
  6
Continuous
370
    -3
390
F
  0
ENDTAB
  0
TABLE
  2
STYLE
  5
3
330
0
100
AcDbSymbolTable
 70
     2
  0
STYLE
  5
11
330
3
100
AcDbSymbolTableRecord
100
AcDbTextStyleTableRecord
  2
Standard
 70
     0
 40
0.0
 41
1.0
 50
0.0
 71
     0
 42
0.2
  3
txt
  4

  0
STYLE
  5
4A
330
3
100
AcDbSymbolTableRecord
100
AcDbTextStyleTableRecord
  2
SLDTEXTSTYLE0
 70
     0
 40
0.0
 41
0.75
 50
0.0
 71
     0
 42
0.2
  3
TXT
  4

  0
ENDTAB
  0
TABLE
  2
VIEW
  5
6
330
0
100
AcDbSymbolTable
 70
     0
  0
ENDTAB
  0
TABLE
  2
UCS
  5
7
330
0
100
AcDbSymbolTable
 70
     0
  0
ENDTAB
  0
TABLE
  2
APPID
  5
9
330
0
100
AcDbSymbolTable
 70
     1
  0
APPID
  5
12
330
9
100
AcDbSymbolTableRecord
100
AcDbRegAppTableRecord
  2
ACAD
 70
     0
  0
ENDTAB
  0
TABLE
  2
DIMSTYLE
  5
A
330
0
100
AcDbSymbolTable
 70
     3
100
AcDbDimStyleTable
  0
DIMSTYLE
105
27
330
A
100
AcDbSymbolTableRecord
100
AcDbDimStyleTableRecord
  2
Standard
 70
     0
178
     0
340
11
  0
DIMSTYLE
105
D1
102
{ACAD_REACTORS
330
D0
102
}
330
A
100
AcDbSymbolTableRecord
100
AcDbDimStyleTableRecord
  2
SLDDIMSTYLE0
 70
     0
 41
0.2
 44
0.0
 45
0.000000001
 78
    12
 79
     3
140
0.1
147
0.025
173
     1
178
     0
272
     3
276
     2
284
    12
340
4A
  0
DIMSTYLE
105
13A
102
{ACAD_REACTORS
330
139
102
}
330
A
100
AcDbSymbolTableRecord
100
AcDbDimStyleTableRecord
  2
SLDDIMSTYLE1
 70
     0
 41
0.2
 44
0.0
 45
0.000000001
 78
     4
 79
     1
140
0.1
147
0.025
173
     1
178
     0
272
     3
276
     2
284
    12
340
4A
  0
ENDTAB
  0
TABLE
  2
BLOCK_RECORD
  5
1
330
0
100
AcDbSymbolTable
 70
     3
  0
BLOCK_RECORD
  5
1F
330
1
100
AcDbSymbolTableRecord
100
AcDbBlockTableRecord
  2
*Model_Space
340
22
  0
BLOCK_RECORD
  5
1B
330
1
100
AcDbSymbolTableRecord
100
AcDbBlockTableRecord
  2
*Paper_Space
340
1E
  0
BLOCK_RECORD
  5
23
330
1
100
AcDbSymbolTableRecord
100
AcDbBlockTableRecord
  2
*Paper_Space0
340
26
  0
BLOCK_RECORD
  5
D2
330
1
100
AcDbSymbolTableRecord
100
AcDbBlockTableRecord
  2
*D1
340
0
  0
BLOCK_RECORD
  5
13B
330
1
100
AcDbSymbolTableRecord
100
AcDbBlockTableRecord
  2
*D2
340
0
  0
ENDTAB
  0
ENDSEC
  0
SECTION
  2
BLOCKS
  0
BLOCK
  5
20
330
1F
100
AcDbEntity
  8
0
100
AcDbBlockBegin
  2
*Model_Space
 70
     0
 10
0.0
 20
0.0
 30
0.0
  3
*Model_Space
  1

  0
ENDBLK
  5
21
330
1F
100
AcDbEntity
  8
0
100
AcDbBlockEnd
  0
BLOCK
  5
1C
330
1B
100
AcDbEntity
 67
     1
  8
0
100
AcDbBlockBegin
  2
*Paper_Space
 70
     0
 10
0.0
 20
0.0
 30
0.0
  3
*Paper_Space
  1

  0
ENDBLK
  5
1D
330
1B
100
AcDbEntity
 67
     1
  8
0
100
AcDbBlockEnd
  0
BLOCK
  5
24
330
23
100
AcDbEntity
  8
0
100
AcDbBlockBegin
  2
*Paper_Space0
 70
     0
 10
0.0
 20
0.0
 30
0.0
  3
*Paper_Space0
  1

  0
ENDBLK
  5
25
330
23
100
AcDbEntity
  8
0
100
AcDbBlockEnd
  0
BLOCK
  5
D3
330
D2
100
AcDbEntity
  8
0
100
AcDbBlockBegin
  2
*D1
 70
     1
 10
0.0
 20
0.0
 30
0.0
  3
*D1
  1

  0
SOLID
  5
D5
330
D2
100
AcDbEntity
  8
TEXTF
100
AcDbTrace
 10
9.2913695786
 20
0.3167938104
 30
0.0
 11
9.4913695786
 21
0.2834604771
 31
0.0
 12
9.4913695786
 22
0.3501271437
 32
0.0
 13
9.4913695786
 23
0.3501271437
 33
0.0
  0
SOLID
  5
D6
330
D2
100
AcDbEntity
  8
TEXTF
100
AcDbTrace
 10
11.4564330881
 20
0.3167938104
 30
0.0
 11
11.2564330881
 21
0.3501271437
 31
0.0
 12
11.2564330881
 22
0.2834604771
 32
0.0
 13
11.2564330881
 23
0.2834604771
 33
0.0
  0
LINE
  5
D7
330
D2
100
AcDbEntity
  8
TEXTF
100
AcDbLine
 10
9.2913695786
 20
1.5706877137
 30
0.0
 11
9.2913695786
 21
0.1917938104
 31
0.0
  0
LINE
  5
D8
330
D2
100
AcDbEntity
  8
TEXTF
100
AcDbLine
 10
11.4564330881
 20
1.5706877137
 30
0.0
 11
11.4564330881
 21
0.1917938104
 31
0.0
  0
LINE
  5
D9
330
D2
100
AcDbEntity
  8
TEXTF
100
AcDbLine
 10
9.2913695786
 20
0.3167938104
 30
0.0
 11
9.0787834443
 21
0.3167938104
 31
0.0
  0
LINE
  5
DA
330
D2
100
AcDbEntity
  8
TEXTF
100
AcDbLine
 10
11.4564330881
 20
0.3167938104
 30
0.0
 11
9.2913695786
 21
0.3167938104
 31
0.0
  0
MTEXT
  5
DB
330
D2
100
AcDbEntity
  8
TEXTF
100
AcDbMText
 10
8.5911445209
 20
0.3663255838
 30
0.0039370079
 40
0.1
 41
0.0
 71
     1
 72
     1
  1
2.1651
  7
SLDTEXTSTYLE0
 73
     1
 44
1.0
  0
ENDBLK
  5
D4
330
D2
100
AcDbEntity
  8
0
100
AcDbBlockEnd
  0
BLOCK
  5
13C
330
13B
100
AcDbEntity
  8
0
100
AcDbBlockBegin
  2
*D2
 70
     1
 10
0.0
 20
0.0
 30
0.0
  3
*D2
  1

  0
SOLID
  5
13E
330
13B
100
AcDbEntity
  8
TEXTF
100
AcDbTrace
 10
4.6255610957
 20
7.7106877137
 30
0.0
 11
4.5922277624
 21
7.5106877137
 31
0.0
 12
4.6588944291
 22
7.5106877137
 32
0.0
 13
4.6588944291
 23
7.5106877137
 33
0.0
  0
SOLID
  5
13F
330
13B
100
AcDbEntity
  8
TEXTF
100
AcDbTrace
 10
4.6255610957
 20
0.5306877137
 30
0.0
 11
4.6588944291
 21
0.7306877137
 31
0.0
 12
4.5922277624
 22
0.7306877137
 32
0.0
 13
4.5922277624
 23
0.7306877137
 33
0.0
  0
LINE
  5
140
330
13B
100
AcDbEntity
  8
TEXTF
100
AcDbLine
 10
3.4757234921
 20
7.7106877137
 30
0.0
 11
4.7505610957
 21
7.7106877137
 31
0.0
  0
LINE
  5
141
330
13B
100
AcDbEntity
  8
TEXTF
100
AcDbLine
 10
3.8905555556
 20
0.5306877137
 30
0.0
 11
4.7505610957
 21
0.5306877137
 31
0.0
  0
LINE
  5
142
330
13B
100
AcDbEntity
  8
TEXTF
100
AcDbLine
 10
4.6255610957
 20
7.7106877137
 30
0.0
 11
4.6255610957
 21
3.6313834978
 31
0.0
  0
LINE
  5
143
330
13B
100
AcDbEntity
  8
TEXTF
100
AcDbLine
 10
4.6255610957
 20
0.5306877137
 30
0.0
 11
4.6255610957
 21
3.4726334967
 31
0.0
  0
MTEXT
  5
144
330
13B
100
AcDbEntity
  8
TEXTF
100
AcDbMText
 10
4.381741634
 20
3.6015402707
 30
0.0039370079
 40
0.1
 41
0.0
 71
     1
 72
     1
  1
7.1800
  7
SLDTEXTSTYLE0
 73
     1
 44
1.0
  0
ENDBLK
  5
13D
330
13B
100
AcDbEntity
  8
0
100
AcDbBlockEnd
  0
ENDSEC
  0
SECTION
  2
ENTITIES
  0
MTEXT
  5
4B
330
1F
100
AcDbEntity
  8
TEXTF
100
AcDbMText
 10
6.2762531003
 20
6.6215376705
 30
0.0
 40
0.1666666667
 41
0.0
 71
     1
 72
     1
  1
7012
  7
SLDTEXTSTYLE0
 73
     1
 44
1.0
  0
LINE
  5
4C
330
1F
100
AcDbEntity
  8
0
  6
Continuous
 62
     7
370
    15
100
AcDbLine
 10
9.4439013333
 20
0.6506877137
 30
0.0
 11
9.5639013333
 21
0.5306877137
 31
0.0
  0
LINE
  5
4D
330
1F
100
AcDbEntity
  8
0
  6
Continuous
 62
     7
370
    15
100
AcDbLine
 10
11.1839013333
 20
0.5306877137
 30
0.0
 11
11.3039013333
 21
0.6506877137
 31
0.0
  0
LINE
  5
4E
330
1F
100
AcDbEntity
  8
0
  6
Continuous
 62
     7
370
    15
100
AcDbLine
 10
11.3039013333
 20
4.4706877137
 30
0.0
 11
11.2839013333
 21
4.4906877137
 31
0.0
  0
LINE
  5
4F
330
1F
100
AcDbEntity
  8
0
  6
Continuous
 62
     7
370
    15
100
AcDbLine
 10
9.4639013333
 20
4.4906877137
 30
0.0
 11
9.4439013333
 21
4.4706877137
 31
0.0
  0
LINE
  5
50
330
1F
100
AcDbEntity
  8
0
  6
Continuous
 62
     7
370
    15
100
AcDbLine
 10
9.4439013333
 20
1.5206877137
 30
0.0
 11
9.4439013333
 21
0.6506877137
 31
0.0
  0
LINE
  5
51
330
1F
100
AcDbEntity
  8
0
  6
Continuous
 62
     7
370
    15
100
AcDbLine
 10
11.3039013333
 20
0.6506877137
 30
0.0
 11
11.3039013333
 21
1.5206877137
 31
0.0
  0
LINE
  5
52
330
1F
100
AcDbEntity
  8
0
  6
Continuous
 62
     7
370
    15
100
AcDbLine
 10
9.4439013333
 20
4.4706877137
 30
0.0
 11
9.4439013333
 21
3.7106877137
 31
0.0
  0
LINE
  5
53
330
1F
100
AcDbEntity
  8
0
  6
Continuous
 62
     7
370
    15
100
AcDbLine
 10
11.3039013333
 20
3.7106877137
 30
0.0
 11
11.3039013333
 21
4.4706877137
 31
0.0
  0
LINE
  5
54
330
1F
100
AcDbEntity
  8
0
  6
Continuous
 62
     7
370
    15
100
AcDbLine
 10
11.2139013333
 20
4.4906877137
 30
0.0
 11
11.2139013333
 21
6.1706877137
 31
0.0
  0
LINE
  5
55
330
1F
100
AcDbEntity
  8
0
  6
Continuous
 62
     7
370
    15
100
AcDbLine
 10
9.5339013333
 20
6.1706877137
 30
0.0
 11
9.5339013333
 21
4.4906877137
 31
0.0
  0
LINE
  5
56
330
1F
100
AcDbEntity
  8
0
  6
Continuous
 62
     7
370
    15
100
AcDbLine
 10
10.8739013333
 20
7.1706877137
 30
0.0
 11
10.8739013333
 21
7.4106877137
 31
0.0
  0
LINE
  5
57
330
1F
100
AcDbEntity
  8
0
  6
Continuous
 62
     7
370
    15
100
AcDbLine
 10
9.8739013333
 20
7.4106877137
 30
0.0
 11
9.8739013333
 21
7.1706877137
 31
0.0
  0
ARC
  5
58
330
1F
100
AcDbEntity
  8
0
  6
Continuous
 62
     7
370
    15
100
AcDbCircle
 10
9.4808588703
 20
7.0706877137
 30
0.0
 40
0.1000000000000003
100
AcDbArc
 50
90.0
 51
142.3213143095
  0
LWPOLYLINE
  5
59
330
1F
100
AcDbEntity
  8
0
  6
Continuous
 62
     7
370
    15
100
AcDbPolyline
 90
        3
 70
   128
 43
0.0
 10
9.386813823
 20
7.1046807877
 10
9.3820493018
 20
7.0860717693
 10
9.3809734765
 20
7.0659014736
  0
LINE
  5
5A
330
1F
100
AcDbEntity
  8
0
  6
Continuous
 62
     7
370
    15
100
AcDbLine
 10
11.3669122203
 20
7.0732005215
 30
0.0
 11
11.3668281665
 21
7.0754952693
 31
0.0
  0
ARC
  5
5B
330
1F
100
AcDbEntity
  8
0
  6
Continuous
 62
     7
370
    15
100
AcDbCircle
 10
11.2669437963
 20
7.0706877137
 30
0.0
 40
0.1000000000000004
100
AcDbArc
 50
38.7621860301
 51
90.0
  0
ARC
  5
5C
330
1F
100
AcDbEntity
  8
0
  6
Continuous
 62
     7
370
    15
100
AcDbCircle
 10
11.3564330881
 20
3.6106877137
 30
0.0
 40
0.1000000000000002
100
AcDbArc
 50
39.0013371291
 51
90.0
  0
ARC
  5
5D
330
1F
100
AcDbEntity
  8
0
  6
Continuous
 62
     7
370
    15
100
AcDbCircle
 10
9.3913695786
 20
3.6106877137
 30
0.0
 40
0.1000000000000001
100
AcDbArc
 50
90.0
 51
127.1308790528
  0
ARC
  5
5E
330
1F
100
AcDbEntity
  8
0
  6
Continuous
 62
     7
370
    15
100
AcDbCircle
 10
9.3913695786
 20
3.6106877137
 30
0.0
 40
0.0999999999999991
100
AcDbArc
 50
159.4020278934
 51
182.7434000285
  0
ARC
  5
5F
330
1F
100
AcDbEntity
  8
0
  6
Continuous
 62
     7
370
    15
100
AcDbCircle
 10
9.3913695786
 20
1.6206877137
 30
0.0
 40
0.1000000000000005
100
AcDbArc
 50
236.1437134645
 51
270.0
  0
ARC
  5
60
330
1F
100
AcDbEntity
  8
0
  6
Continuous
 62
     7
370
    15
100
AcDbCircle
 10
9.4808588703
 20
6.2706877137
 30
0.0
 40
0.1000000000000005
100
AcDbArc
 50
220.7367382053
 51
270.0
  0
ARC
  5
61
330
1F
100
AcDbEntity
  8
0
  6
Continuous
 62
     7
370
    15
100
AcDbCircle
 10
11.2669437963
 20
6.2706877137
 30
0.0
 40
0.1000000000000005
100
AcDbArc
 50
270.0
 51
320.4608405376
  0
LWPOLYLINE
  5
62
330
1F
100
AcDbEntity
  8
0
  6
Continuous
 62
     7
370
    15
100
AcDbPolyline
 90
        3
 70
   128
 43
0.0
 10
11.3615674513
 20
6.2383401646
 10
11.3657480484
 20
6.2552695502
 10
11.3668310706
 20
6.2754345475
  0
ARC
  5
63
330
1F
100
AcDbEntity
  8
0
  6
Continuous
 62
     7
370
    15
100
AcDbCircle
 10
11.3564330881
 20
1.6206877137
 30
0.0
 40
0.1000000000000005
100
AcDbArc
 50
270.0
 51
321.5577231156
  0
ARC
  5
64
330
1F
100
AcDbEntity
  8
0
  6
Continuous
 62
     7
370
    15
100
AcDbCircle
 10
11.3564330881
 20
1.6206877137
 30
0.0
 40
0.0999999999999991
100
AcDbArc
 50
339.5442301407
 51
2.7409748337
  0
ARC
  5
65
330
1F
100
AcDbEntity
  8
0
  6
Continuous
 62
     7
370
    15
100
AcDbCircle
 10
10.9012516025
 20
7.6606877137
 30
0.0
 40
0.0499999999999998
100
AcDbArc
 50
52.7968119273
 51
90.0
  0
LINE
  5
66
330
1F
100
AcDbEntity
  8
0
  6
Continuous
 62
     7
370
    15
100
AcDbLine
 10
9.796566295
 20
7.4594536735
 30
0.0
 11
9.7966067376
 21
7.458328848
 31
0.0
  0
ARC
  5
67
330
1F
100
AcDbEntity
  8
0
  6
Continuous
 62
     7
370
    15
100
AcDbCircle
 10
9.8465510641
 20
7.4606877137
 30
0.0
 40
0.0499999999999998
100
AcDbArc
 50
237.7389474495
 51
270.0
  0
ARC
  5
68
330
1F
100
AcDbEntity
  8
0
  6
Continuous
 62
     7
370
    15
100
AcDbCircle
 10
9.8465510641
 20
7.6606877137
 30
0.0
 40
0.0499999999999998
100
AcDbArc
 50
90.0
 51
126.6523451967
  0
ARC
  5
69
330
1F
100
AcDbEntity
  8
0
  6
Continuous
 62
     7
370
    15
100
AcDbCircle
 10
9.8465510641
 20
7.6606877137
 30
0.0
 40
0.0499999999999999
100
AcDbArc
 50
160.3507455578
 51
184.0087630281
  0
ARC
  5
6A
330
1F
100
AcDbEntity
  8
0
  6
Continuous
 62
     7
370
    15
100
AcDbCircle
 10
10.9012516025
 20
7.4606877137
 30
0.0
 40
0.0500000000000001
100
AcDbArc
 50
270.0
 51
307.0261906336
  0
ARC
  5
6B
330
1F
100
AcDbEntity
  8
0
  6
Continuous
 62
     7
370
    15
100
AcDbCircle
 10
10.9012516025
 20
7.4606877137
 30
0.0
 40
0.0499999999999996
100
AcDbArc
 50
340.0847843332
 51
3.9478009807
  0
CIRCLE
  5
6C
330
1F
100
AcDbEntity
  8
0
  6
Continuous
 62
     7
370
    15
100
AcDbCircle
 10
10.3739013333
 20
2.6156877137
 30
0.0
 40
0.3892150000000001
  0
SPLINE
  5
6D
330
1F
100
AcDbEntity
  8
0
  6
Continuous
 62
     7
370
    15
100
AcDbSpline
210
0.0
220
0.0
230
1.0
 70
     8
 71
     3
 72
    22
 73
    18
 74
     0
 42
0.00000001
 43
0.00000001
 40
0.0
 40
0.0
 40
0.0
 40
0.0
 40
0.2500000000000009
 40
0.2500000000000009
 40
0.5000000000000018
 40
0.5000000000000018
 40
0.6250000000000029
 40
0.6250000000000029
 40
0.750000000000004
 40
0.750000000000004
 40
0.812500000000003
 40
0.812500000000003
 40
0.875000000000002
 40
0.875000000000002
 40
0.937500000000001
 40
0.937500000000001
 40
1.0
 40
1.0
 40
1.0
 40
1.0
 10
10.66794622625599
 20
1.52068771367635
 30
0.0
 10
10.69195120777814
 20
1.52068771367635
 30
0.0
 10
10.71590617752112
 20
1.52143995501448
 30
0.0
 10
10.76363307586558
 20
1.525697611352701
 30
0.0
 10
10.78755576773114
 20
1.52919438263801
 30
0.0
 10
10.82237047972027
 20
1.53808973514248
 30
0.0
 10
10.83380685592009
 20
1.541665947744398
 30
0.0
 10
10.85617441042779
 20
1.550650260404287
 30
0.0
 10
10.86697721703547
 20
1.555994206613117
 30
0.0
 10
10.88201486795989
 20
1.565970042112178
 30
0.0
 10
10.88685856390105
 20
1.569655451684048
 30
0.0
 10
10.89575480126372
 20
1.577729341929157
 30
0.0
 10
10.89984105257144
 20
1.582128352437979
 30
0.0
 10
10.9069822257712
 20
1.59195826721139
 30
0.0
 10
10.90990787777598
 20
1.597216221756266
 30
0.0
 10
10.91404049732014
 20
1.608603202045381
 30
0.0
 10
10.91516721069897
 20
1.614589325731559
 30
0.0
 10
10.91516721069898
 20
1.620687713676294
 30
0.0
  0
LINE
  5
6E
330
1F
100
AcDbEntity
  8
0
  6
Continuous
 62
     7
370
    15
100
AcDbLine
 10
10.6679462263
 20
1.5206877137
 30
0.0
 11
10.0798564404
 21
1.5206877137
 31
0.0
  0
SPLINE
  5
6F
330
1F
100
AcDbEntity
  8
0
  6
Continuous
 62
     7
370
    15
100
AcDbSpline
210
0.0
220
0.0
230
1.0
 70
     8
 71
     3
 72
    22
 73
    18
 74
     0
 42
0.00000001
 43
0.00000001
 40
0.0
 40
0.0
 40
0.0
 40
0.0
 40
0.0625000000000003
 40
0.0625000000000003
 40
0.1250000000000007
 40
0.1250000000000007
 40
0.1875000000000011
 40
0.1875000000000011
 40
0.2500000000000014
 40
0.2500000000000014
 40
0.3750000000000011
 40
0.3750000000000011
 40
0.5000000000000008
 40
0.5000000000000008
 40
0.7500000000000003
 40
0.7500000000000003
 40
1.0
 40
1.0
 40
1.0
 40
1.0
 10
9.832635455968068
 20
1.620687713676361
 30
0.0
 10
9.832635455968067
 20
1.614554815882003
 30
0.0
 10
9.833753308274728
 20
1.608610453521507
 30
0.0
 10
9.837940831451954
 20
1.597106674064235
 30
0.0
 10
9.840912497570953
 20
1.591803207833689
 30
0.0
 10
9.84811596288852
 20
1.581945220469868
 30
0.0
 10
9.852233206687734
 20
1.577538890444637
 30
0.0
 10
9.86118847269557
 20
1.569457009323226
 30
0.0
 10
9.866067891598444
 20
1.565765282719988
 30
0.0
 10
9.881203839768197
 20
1.55578290534577
 30
0.0
 10
9.891982665607127
 20
1.550485570811549
 30
0.0
 10
9.914374687668484
 20
1.541536844742494
 30
0.0
 10
9.925960504455144
 20
1.537935290045842
 30
0.0
 10
9.960742290606017
 20
1.529108054857104
 30
0.0
 10
9.984312584815914
 20
1.525682773264441
 30
0.0
 10
10.0318594918788
 20
1.521445341913125
 30
0.0
 10
10.05589315142606
 20
1.52068771367635
 30
0.0
 10
10.0798564404107
 20
1.52068771367635
 30
0.0
  0
LINE
  5
70
330
1F
100
AcDbEntity
  8
0
  6
Continuous
 62
     7
370
    15
100
AcDbLine
 10
9.832635456
 20
1.6206877137
 30
0.0
 11
9.832635456
 21
3.6106877137
 31
0.0
  0
SPLINE
  5
71
330
1F
100
AcDbEntity
  8
0
  6
Continuous
 62
     7
370
    15
100
AcDbSpline
210
0.0
220
0.0
230
1.0
 70
     8
 71
     3
 72
    22
 73
    18
 74
     0
 42
0.00000001
 43
0.00000001
 40
0.0
 40
0.0
 40
0.0
 40
0.0
 40
0.2500000000000003
 40
0.2500000000000003
 40
0.5000000000000007
 40
0.5000000000000007
 40
0.6250000000000011
 40
0.6250000000000011
 40
0.7500000000000014
 40
0.7500000000000014
 40
0.8125000000000011
 40
0.8125000000000011
 40
0.8750000000000007
 40
0.8750000000000007
 40
0.9375000000000003
 40
0.9375000000000003
 40
1.0
 40
1.0
 40
1.0
 40
1.0
 10
10.0798564404107
 20
3.71068771367635
 30
0.0
 10
10.05585145888855
 20
3.71068771367635
 30
0.0
 10
10.03189648914557
 20
3.70993547233822
 30
0.0
 10
9.984169590801107
 20
3.705677816000001
 30
0.0
 10
9.96024689893555
 20
3.702181044714691
 30
0.0
 10
9.92543218694642
 20
3.693285692210222
 30
0.0
 10
9.913995810746602
 20
3.689709479608303
 30
0.0
 10
9.891628256238901
 20
3.680725166948414
 30
0.0
 10
9.880825449631214
 20
3.675381220739585
 30
0.0
 10
9.865787798706801
 20
3.665405385240522
 30
0.0
 10
9.860944102765632
 20
3.661719975668653
 30
0.0
 10
9.852047865402966
 20
3.653646085423544
 30
0.0
 10
9.84796161409525
 20
3.649247074914722
 30
0.0
 10
9.840820440895488
 20
3.63941716014131
 30
0.0
 10
9.837894788890713
 20
3.634159205596434
 30
0.0
 10
9.833762169346544
 20
3.622772225307319
 30
0.0
 10
9.832635455967713
 20
3.61678610162114
 30
0.0
 10
9.832635455967706
 20
3.610687713676406
 30
0.0
  0
LINE
  5
72
330
1F
100
AcDbEntity
  8
0
  6
Continuous
 62
     7
370
    15
100
AcDbLine
 10
10.6679462263
 20
3.7106877137
 30
0.0
 11
10.0798564404
 21
3.7106877137
 31
0.0
  0
SPLINE
  5
73
330
1F
100
AcDbEntity
  8
0
  6
Continuous
 62
     7
370
    15
100
AcDbSpline
210
0.0
220
0.0
230
1.0
 70
     8
 71
     3
 72
    22
 73
    18
 74
     0
 42
0.00000001
 43
0.00000001
 40
0.0
 40
0.0
 40
0.0
 40
0.0
 40
0.0624999999999999
 40
0.0624999999999999
 40
0.1249999999999999
 40
0.1249999999999999
 40
0.1874999999999998
 40
0.1874999999999998
 40
0.2499999999999998
 40
0.2499999999999998
 40
0.3749999999999997
 40
0.3749999999999997
 40
0.4999999999999997
 40
0.4999999999999997
 40
0.7499999999999999
 40
0.7499999999999999
 40
1.0
 40
1.0
 40
1.0
 40
1.0
 10
10.91516721069862
 20
3.61068771367635
 30
0.0
 10
10.91516721069862
 20
3.616820611470707
 30
0.0
 10
10.91404935839196
 20
3.622764973831203
 30
0.0
 10
10.90986183521473
 20
3.634268753288473
 30
0.0
 10
10.90689016909573
 20
3.639572219519019
 30
0.0
 10
10.89968670377816
 20
3.649430206882837
 30
0.0
 10
10.89556945997895
 20
3.653836536908068
 30
0.0
 10
10.88661419397111
 20
3.661918418029479
 30
0.0
 10
10.88173477506824
 20
3.665610144632716
 30
0.0
 10
10.86659882689848
 20
3.675592522006934
 30
0.0
 10
10.85582000105956
 20
3.680889856541153
 30
0.0
 10
10.8334279789982
 20
3.689838582610207
 30
0.0
 10
10.82184216221154
 20
3.693440137306859
 30
0.0
 10
10.78706037606067
 20
3.702267372495597
 30
0.0
 10
10.76349008185077
 20
3.70569265408826
 30
0.0
 10
10.71594317478789
 20
3.709930085439574
 30
0.0
 10
10.69190951524063
 20
3.71068771367635
 30
0.0
 10
10.66794622625599
 20
3.71068771367635
 30
0.0
  0
LINE
  5
74
330
1F
100
AcDbEntity
  8
0
  6
Continuous
 62
     7
370
    15
100
AcDbLine
 10
10.9151672107
 20
1.6206877137
 30
0.0
 11
10.9151672107
 21
3.6106877137
 31
0.0
  0
SPLINE
  5
75
330
1F
100
AcDbEntity
  8
0
  6
Continuous
 62
     7
370
    15
100
AcDbSpline
210
0.0
220
0.0
230
1.0
 70
     8
 71
     3
 72
    22
 73
    18
 74
     0
 42
0.00000001
 43
0.00000001
 40
0.0
 40
0.0
 40
0.0
 40
0.0
 40
0.2500000000000006
 40
0.2500000000000006
 40
0.5000000000000012
 40
0.5000000000000012
 40
0.6250000000000014
 40
0.6250000000000014
 40
0.7500000000000016
 40
0.7500000000000016
 40
0.8125000000000012
 40
0.8125000000000012
 40
0.8750000000000008
 40
0.8750000000000008
 40
0.9375000000000004
 40
0.9375000000000004
 40
1.0
 40
1.0
 40
1.0
 40
1.0
 10
10.13322553327837
 20
7.17068771367635
 30
0.0
 10
10.10858420906311
 20
7.17068771367635
 30
0.0
 10
10.08394681283604
 20
7.170050952649166
 30
0.0
 10
10.03468848198
 20
7.166108862469337
 30
0.0
 10
10.01008355664841
 20
7.162841136059565
 30
0.0
 10
9.973936189532987
 20
7.154168796166748
 30
0.0
 10
9.962098389428313
 20
7.150658715639196
 30
0.0
 10
9.93914073100039
 20
7.141875210048259
 30
0.0
 10
9.92793551875857
 20
7.136592237715989
 30
0.0
 10
9.912196531816033
 20
7.126549322295517
 30
0.0
 10
9.907191574021017
 20
7.12288167953876
 30
0.0
 10
9.897833676183703
 20
7.114681964110317
 30
0.0
 10
9.893507099294231
 20
7.110159909035874
 30
0.0
 10
9.886106050542036
 20
7.100296143636122
 30
0.0
 10
9.88294815449117
 20
7.094814934967508
 30
0.0
 10
9.878592546120252
 20
7.083182702399147
 30
0.0
 10
9.877380101830255
 20
7.076976949601145
 30
0.0
 10
9.877380101830255
 20
7.07068771367635
 30
0.0
  0
LINE
  5
76
330
1F
100
AcDbEntity
  8
0
  6
Continuous
 62
     7
370
    15
100
AcDbLine
 10
10.1332255333
 20
7.1706877137
 30
0.0
 11
10.6145771334
 21
7.1706877137
 31
0.0
  0
SPLINE
  5
77
330
1F
100
AcDbEntity
  8
0
  6
Continuous
 62
     7
370
    15
100
AcDbSpline
210
0.0
220
0.0
230
1.0
 70
     8
 71
     3
 72
    22
 73
    18
 74
     0
 42
0.00000001
 43
0.00000001
 40
0.0
 40
0.0
 40
0.0
 40
0.0
 40
0.0625000000000002
 40
0.0625000000000002
 40
0.1250000000000003
 40
0.1250000000000003
 40
0.1875000000000005
 40
0.1875000000000005
 40
0.2500000000000007
 40
0.2500000000000007
 40
0.375000000000001
 40
0.375000000000001
 40
0.5000000000000013
 40
0.5000000000000013
 40
0.7500000000000007
 40
0.7500000000000007
 40
1.0
 40
1.0
 40
1.0
 40
1.0
 10
10.87042256483642
 20
7.07068771367635
 30
0.0
 10
10.87042256483642
 20
7.077002312739325
 30
0.0
 10
10.86923201731301
 20
7.083133670149847
 30
0.0
 10
10.86481152037994
 20
7.094920259083094
 30
0.0
 10
10.86166622391958
 20
7.100360202283635
 30
0.0
 10
10.85411545910717
 20
7.110375728118344
 30
0.0
 10
10.84980610201395
 20
7.114841699411688
 30
0.0
 10
10.84043928993063
 20
7.123014592582096
 30
0.0
 10
10.83534583776765
 20
7.126730755874184
 30
0.0
 10
10.81961401207874
 20
7.136721919214153
 30
0.0
 10
10.80842127759948
 20
7.141990133548274
 30
0.0
 10
10.78517997105614
 20
7.150835698805507
 30
0.0
 10
10.77323858644205
 20
7.154339366944467
 30
0.0
 10
10.73733996552183
 20
7.16289084498113
 30
0.0
 10
10.71302390249285
 20
7.166115078326667
 30
0.0
 10
10.66400093337284
 20
7.170040350292625
 30
0.0
 10
10.63925991184124
 20
7.17068771367635
 30
0.0
 10
10.61457713338831
 20
7.17068771367635
 30
0.0
  0
LINE
  5
78
330
1F
100
AcDbEntity
  8
0
  6
Continuous
 62
     7
370
    15
100
AcDbLine
 10
10.8704225648
 20
7.0706877137
 30
0.0
 11
10.8704225648
 21
6.2706877137
 31
0.0
  0
SPLINE
  5
79
330
1F
100
AcDbEntity
  8
0
  6
Continuous
 62
     7
370
    15
100
AcDbSpline
210
0.0
220
0.0
230
1.0
 70
     8
 71
     3
 72
    22
 73
    18
 74
     0
 42
0.00000001
 43
0.00000001
 40
0.0
 40
0.0
 40
0.0
 40
0.0
 40
0.2499999999999994
 40
0.2499999999999994
 40
0.4999999999999991
 40
0.4999999999999991
 40
0.6249999999999989
 40
0.6249999999999989
 40
0.7499999999999988
 40
0.7499999999999988
 40
0.8124999999999991
 40
0.8124999999999991
 40
0.8749999999999993
 40
0.8749999999999993
 40
0.9374999999999997
 40
0.9374999999999997
 40
1.0
 40
1.0
 40
1.0
 40
1.0
 10
10.61457713338831
 20
6.170687713676349
 30
0.0
 10
10.63921845760358
 20
6.170687713676349
 30
0.0
 10
10.66385585383064
 20
6.171324474703535
 30
0.0
 10
10.71311418468669
 20
6.17526656488336
 30
0.0
 10
10.73771911001828
 20
6.178534291293136
 30
0.0
 10
10.7738664771337
 20
6.187206631185952
 30
0.0
 10
10.78570427723837
 20
6.190716711713503
 30
0.0
 10
10.8086619356663
 20
6.199500217304441
 30
0.0
 10
10.81986714790812
 20
6.20478318963671
 30
0.0
 10
10.83560613485066
 20
6.214826105057184
 30
0.0
 10
10.84061109264567
 20
6.21849374781394
 30
0.0
 10
10.84996899048299
 20
6.226693463242383
 30
0.0
 10
10.85429556737246
 20
6.231215518316827
 30
0.0
 10
10.86169661612465
 20
6.241079283716577
 30
0.0
 10
10.86485451217552
 20
6.246560492385191
 30
0.0
 10
10.86921012054644
 20
6.258192724953553
 30
0.0
 10
10.87042256483643
 20
6.264398477751554
 30
0.0
 10
10.87042256483643
 20
6.27068771367635
 30
0.0
  0
LINE
  5
7A
330
1F
100
AcDbEntity
  8
0
  6
Continuous
 62
     7
370
    15
100
AcDbLine
 10
10.1332255333
 20
6.1706877137
 30
0.0
 11
10.6145771334
 21
6.1706877137
 31
0.0
  0
SPLINE
  5
7B
330
1F
100
AcDbEntity
  8
0
  6
Continuous
 62
     7
370
    15
100
AcDbSpline
210
0.0
220
0.0
230
1.0
 70
     8
 71
     3
 72
    22
 73
    18
 74
     0
 42
0.00000001
 43
0.00000001
 40
0.0
 40
0.0
 40
0.0
 40
0.0
 40
0.0624999999999997
 40
0.0624999999999997
 40
0.1249999999999994
 40
0.1249999999999994
 40
0.1874999999999991
 40
0.1874999999999991
 40
0.2499999999999988
 40
0.2499999999999988
 40
0.3749999999999984
 40
0.3749999999999984
 40
0.4999999999999981
 40
0.4999999999999981
 40
0.749999999999999
 40
0.749999999999999
 40
1.0
 40
1.0
 40
1.0
 40
1.0
 10
9.877380101830266
 20
6.27068771367635
 30
0.0
 10
9.877380101830266
 20
6.264373114613376
 30
0.0
 10
9.878570649353678
 20
6.258241757202852
 30
0.0
 10
9.882991146286754
 20
6.246455168269605
 30
0.0
 10
9.886136442747105
 20
6.241015225069065
 30
0.0
 10
9.89368720755952
 20
6.230999699234356
 30
0.0
 10
9.897996564652733
 20
6.226533727941012
 30
0.0
 10
9.907363376736063
 20
6.218360834770604
 30
0.0
 10
9.912456828899039
 20
6.214644671478515
 30
0.0
 10
9.928188654587949
 20
6.204653508138548
 30
0.0
 10
9.939381389067204
 20
6.199385293804427
 30
0.0
 10
9.962622695610545
 20
6.190539728547193
 30
0.0
 10
9.974564080224638
 20
6.187036060408235
 30
0.0
 10
10.01046270114486
 20
6.178484582371569
 30
0.0
 10
10.03477876417384
 20
6.175260349026033
 30
0.0
 10
10.08380173329385
 20
6.171335077060076
 30
0.0
 10
10.10854275482545
 20
6.170687713676351
 30
0.0
 10
10.13322553327837
 20
6.170687713676349
 30
0.0
  0
LINE
  5
7C
330
1F
100
AcDbEntity
  8
0
  6
Continuous
 62
     7
370
    15
100
AcDbLine
 10
9.8773801018
 20
7.0706877137
 30
0.0
 11
9.8773801018
 21
6.2706877137
 31
0.0
  0
CIRCLE
  5
7D
330
1F
100
AcDbEntity
  8
0
  6
Continuous
 62
     7
370
    15
100
AcDbCircle
 10
10.3739013333
 20
2.6156877137
 30
0.0
 40
0.3732173424811869
  0
LINE
  5
7E
330
1F
100
AcDbEntity
  8
0
  6
Continuous
 62
     7
370
    15
100
AcDbLine
 10
11.3039013333
 20
0.6506877137
 30
0.0
 11
9.4439013333
 21
0.6506877137
 31
0.0
  0
LINE
  5
7F
330
1F
100
AcDbEntity
  8
0
  6
Continuous
 62
     7
370
    15
100
AcDbLine
 10
11.1839013333
 20
0.5306877137
 30
0.0
 11
9.5639013333
 21
0.5306877137
 31
0.0
  0
LINE
  5
80
330
1F
100
AcDbEntity
  8
0
  6
Continuous
 62
     7
370
    15
100
AcDbLine
 10
11.2839013333
 20
4.4906877137
 30
0.0
 11
9.4639013333
 21
4.4906877137
 31
0.0
  0
LINE
  5
81
330
1F
100
AcDbEntity
  8
0
  6
Continuous
 62
     7
370
    15
100
AcDbLine
 10
11.3039013333
 20
4.4706877137
 30
0.0
 11
9.4439013333
 21
4.4706877137
 31
0.0
  0
SPLINE
  5
82
330
1F
100
AcDbEntity
  8
0
  6
Continuous
 62
     7
370
    15
100
AcDbSpline
210
0.0
220
0.0
230
1.0
 70
     8
 71
     3
 72
    20
 73
    16
 74
     0
 42
0.00000001
 43
0.00000001
 40
0.0
 40
0.0
 40
0.0
 40
0.0
 40
0.2499999999999994
 40
0.2499999999999994
 40
0.4999999999999989
 40
0.4999999999999989
 40
0.6249999999999992
 40
0.6249999999999992
 40
0.7499999999999997
 40
0.7499999999999997
 40
0.875
 40
0.875
 40
0.9375
 40
0.9375
 40
1.0
 40
1.0
 40
1.0
 40
1.0
 10
9.709024963746755
 20
1.52068771367635
 30
0.0
 10
9.721009249498689
 20
1.52068771367635
 30
0.0
 10
9.733034898638627
 20
1.521445670663953
 30
0.0
 10
9.756829021982938
 20
1.525690217421269
 30
0.0
 10
9.768615526738474
 20
1.52912209136439
 30
0.0
 10
9.785985199624308
 20
1.537943001330157
 30
0.0
 10
9.791757765272372
 20
1.541530011317428
 30
0.0
 10
9.802976061499267
 20
1.550497308418927
 30
0.0
 10
9.80837420752423
 20
1.555806190536469
 30
0.0
 10
9.818475123243632
 20
1.569143586096637
 30
0.0
 10
9.823151357098467
 20
1.577146768296015
 30
0.0
 10
9.8285099890709
 20
1.591851848165843
 30
0.0
 10
9.829986264619553
 20
1.597122937167696
 30
0.0
 10
9.832076230941801
 20
1.608611763104621
 30
0.0
 10
9.83263545596807
 20
1.614582065566782
 30
0.0
 10
9.83263545596807
 20
1.620687713676361
 30
0.0
  0
LINE
  5
83
330
1F
100
AcDbEntity
  8
0
  6
Continuous
 62
     7
370
    15
100
AcDbLine
 10
9.7090249637
 20
1.5206877137
 30
0.0
 11
10.0798564404
 21
1.5206877137
 31
0.0
  0
SPLINE
  5
84
330
1F
100
AcDbEntity
  8
0
  6
Continuous
 62
     7
370
    15
100
AcDbSpline
210
0.0
220
0.0
230
1.0
 70
     8
 71
     3
 72
    22
 73
    18
 74
     0
 42
0.00000001
 43
0.00000001
 40
0.0
 40
0.0
 40
0.0
 40
0.0
 40
0.2499999999999998
 40
0.2499999999999998
 40
0.4999999999999997
 40
0.4999999999999997
 40
0.6249999999999997
 40
0.6249999999999997
 40
0.7499999999999997
 40
0.7499999999999997
 40
0.8124999999999998
 40
0.8124999999999998
 40
0.8749999999999999
 40
0.8749999999999999
 40
0.9374999999999999
 40
0.9374999999999999
 40
1.0
 40
1.0
 40
1.0
 40
1.0
 10
11.03877770291993
 20
3.71068771367635
 30
0.0
 10
11.02677521215886
 20
3.71068771367635
 30
0.0
 10
11.01479772728737
 20
3.709935472338219
 30
0.0
 10
10.99093427811514
 20
3.705677816
 30
0.0
 10
10.97897293218236
 20
3.702181044714691
 30
0.0
 10
10.96156557618779
 20
3.693285692210222
 30
0.0
 10
10.95584738808788
 20
3.689709479608303
 30
0.0
 10
10.94466361083403
 20
3.680725166948413
 30
0.0
 10
10.93926220753019
 20
3.675381220739585
 30
0.0
 10
10.93174338206799
 20
3.665405385240522
 30
0.0
 10
10.9293215340974
 20
3.661719975668652
 30
0.0
 10
10.92487341541607
 20
3.653646085423544
 30
0.0
 10
10.92283028976221
 20
3.649247074914721
 30
0.0
 10
10.91925970316233
 20
3.63941716014131
 30
0.0
 10
10.91779687715994
 20
3.634159205596434
 30
0.0
 10
10.91573056738786
 20
3.622772225307319
 30
0.0
 10
10.91516721069844
 20
3.61678610162114
 30
0.0
 10
10.91516721069843
 20
3.610687713676406
 30
0.0
  0
LINE
  5
85
330
1F
100
AcDbEntity
  8
0
  6
Continuous
 62
     7
370
    15
100
AcDbLine
 10
10.6679462263
 20
3.7106877137
 30
0.0
 11
11.0387777029
 21
3.7106877137
 31
0.0
  0
SPLINE
  5
86
330
1F
100
AcDbEntity
  8
0
  6
Continuous
 62
     7
370
    15
100
AcDbSpline
210
0.0
220
0.0
230
1.0
 70
     8
 71
     3
 72
    22
 73
    18
 74
     0
 42
0.00000001
 43
0.00000001
 40
0.0
 40
0.0
 40
0.0
 40
0.0
 40
0.062499999999999
 40
0.062499999999999
 40
0.1249999999999981
 40
0.1249999999999981
 40
0.1874999999999971
 40
0.1874999999999971
 40
0.2499999999999961
 40
0.2499999999999961
 40
0.3749999999999967
 40
0.3749999999999967
 40
0.4999999999999973
 40
0.4999999999999973
 40
0.7499999999999988
 40
0.7499999999999988
 40
1.0
 40
1.0
 40
1.0
 40
1.0
 10
10.91516721069862
 20
1.620687713676351
 30
0.0
 10
10.91516721069862
 20
1.614554815881994
 30
0.0
 10
10.91572613685195
 20
1.608610453521498
 30
0.0
 10
10.91781989844056
 20
1.597106674064228
 30
0.0
 10
10.91930573150006
 20
1.591803207833682
 30
0.0
 10
10.92290746415885
 20
1.581945220469864
 30
0.0
 10
10.92496608605845
 20
1.577538890444633
 30
0.0
 10
10.92944371906237
 20
1.569457009323221
 30
0.0
 10
10.93188342851381
 20
1.565765282719983
 30
0.0
 10
10.93945140259869
 20
1.555782905345765
 30
0.0
 10
10.94484081551815
 20
1.550485570811547
 30
0.0
 10
10.95603682654883
 20
1.541536844742493
 30
0.0
 10
10.96182973494216
 20
1.537935290045841
 30
0.0
 10
10.97922062801759
 20
1.529108054857103
 30
0.0
 10
10.99100577512254
 20
1.52568277326444
 30
0.0
 10
11.01477922865398
 20
1.521445341913128
 30
0.0
 10
11.02679605842762
 20
1.520687713676351
 30
0.0
 10
11.03877770291993
 20
1.52068771367635
 30
0.0
  0
LINE
  5
87
330
1F
100
AcDbEntity
  8
0
  6
Continuous
 62
     7
370
    15
100
AcDbLine
 10
10.6679462263
 20
1.5206877137
 30
0.0
 11
11.0387777029
 21
1.5206877137
 31
0.0
  0
SPLINE
  5
88
330
1F
100
AcDbEntity
  8
0
  6
Continuous
 62
     7
370
    15
100
AcDbSpline
210
0.0
220
0.0
230
1.0
 70
     8
 71
     3
 72
    20
 73
    16
 74
     0
 42
0.00000001
 43
0.00000001
 40
0.0
 40
0.0
 40
0.0
 40
0.0
 40
0.0625
 40
0.0625
 40
0.125
 40
0.125
 40
0.25
 40
0.25
 40
0.375
 40
0.375
 40
0.5
 40
0.5
 40
0.75
 40
0.75
 40
1.0
 40
1.0
 40
1.0
 40
1.0
 10
9.83263545596807
 20
3.61068771367635
 30
0.0
 10
9.83263545596807
 20
3.616826072745304
 30
0.0
 10
9.832071692805014
 20
3.62280270620274
 30
0.0
 10
9.829975468658521
 20
3.634297638219239
 30
0.0
 10
9.828497499816084
 20
3.63956805256192
 30
0.0
 10
9.823110143991835
 20
3.654321165050356
 30
0.0
 10
9.818462831141678
 20
3.662256030600707
 30
0.0
 10
9.80832264977137
 20
3.675629305454827
 30
0.0
 10
9.802929221736859
 20
3.680918333927025
 30
0.0
 10
9.791759455187709
 20
3.689841280142646
 30
0.0
 10
9.785947487737603
 20
3.693456698771462
 30
0.0
 10
9.76849015737705
 20
3.702306671171557
 30
0.0
 10
9.756701633357391
 20
3.705715534633395
 30
0.0
 10
9.732967760851734
 20
3.709934070276134
 30
0.0
 10
9.721015880250501
 20
3.71068771367634
 30
0.0
 10
9.709024963746984
 20
3.71068771367635
 30
0.0
  0
LINE
  5
89
330
1F
100
AcDbEntity
  8
0
  6
Continuous
 62
     7
370
    15
100
AcDbLine
 10
9.7090249637
 20
3.7106877137
 30
0.0
 11
10.0798564404
 21
3.7106877137
 31
0.0
  0
SPLINE
  5
8A
330
1F
100
AcDbEntity
  8
0
  6
Continuous
 62
     7
370
    15
100
AcDbSpline
210
0.0
220
0.0
230
1.0
 70
     8
 71
     3
 72
    22
 73
    18
 74
     0
 42
0.00000001
 43
0.00000001
 40
0.0
 40
0.0
 40
0.0
 40
0.0
 40
0.2499999999999997
 40
0.2499999999999997
 40
0.4999999999999994
 40
0.4999999999999994
 40
0.6249999999999997
 40
0.6249999999999997
 40
0.7499999999999998
 40
0.7499999999999998
 40
0.8124999999999999
 40
0.8124999999999999
 40
0.8749999999999999
 40
0.8749999999999999
 40
0.9375
 40
0.9375
 40
1.0
 40
1.0
 40
1.0
 40
1.0
 10
10.99834528056047
 20
7.17068771367635
 30
0.0
 10
10.98602461845284
 20
7.170687713676351
 30
0.0
 10
10.97370592033931
 20
7.170050952649165
 30
0.0
 10
10.94907675491129
 20
7.166108862469337
 30
0.0
 10
10.9367742922455
 20
7.162841136059564
 30
0.0
 10
10.91870060868778
 20
7.154168796166748
 30
0.0
 10
10.91278170863545
 20
7.150658715639196
 30
0.0
 10
10.90130287942148
 20
7.141875210048259
 30
0.0
 10
10.89570027330057
 20
7.136592237715989
 30
0.0
 10
10.8878307798293
 20
7.126549322295515
 30
0.0
 10
10.8853283009318
 20
7.122881679538759
 30
0.0
 10
10.88064935201314
 20
7.114681964110317
 30
0.0
 10
10.8784860635684
 20
7.110159909035874
 30
0.0
 10
10.87478553919231
 20
7.100296143636123
 30
0.0
 10
10.87320659116688
 20
7.094814934967508
 30
0.0
 10
10.87102878698142
 20
7.083182702399147
 30
0.0
 10
10.87042256483642
 20
7.076976949601145
 30
0.0
 10
10.87042256483642
 20
7.07068771367635
 30
0.0
  0
LINE
  5
8B
330
1F
100
AcDbEntity
  8
0
  6
Continuous
 62
     7
370
    15
100
AcDbLine
 10
10.6145771334
 20
7.1706877137
 30
0.0
 11
10.9983452806
 21
7.1706877137
 31
0.0
  0
SPLINE
  5
8C
330
1F
100
AcDbEntity
  8
0
  6
Continuous
 62
     7
370
    15
100
AcDbSpline
210
0.0
220
0.0
230
1.0
 70
     8
 71
     3
 72
    22
 73
    18
 74
     0
 42
0.00000001
 43
0.00000001
 40
0.0
 40
0.0
 40
0.0
 40
0.0
 40
0.2500000000000001
 40
0.2500000000000001
 40
0.5000000000000002
 40
0.5000000000000002
 40
0.625000000000001
 40
0.625000000000001
 40
0.7500000000000017
 40
0.7500000000000017
 40
0.8125000000000012
 40
0.8125000000000012
 40
0.8750000000000009
 40
0.8750000000000009
 40
0.9375000000000004
 40
0.9375000000000004
 40
1.0
 40
1.0
 40
1.0
 40
1.0
 10
9.749457386106211
 20
6.170687713676349
 30
0.0
 10
9.761751399123966
 20
6.170687713676349
 30
0.0
 10
9.774019366395526
 20
6.171325173091815
 30
0.0
 10
9.798448692209497
 20
6.175209298726149
 30
0.0
 10
9.810612470193485
 20
6.178396750062019
 30
0.0
 10
9.828702566051904
 20
6.186985469108535
 30
0.0
 10
9.834719139885989
 20
6.190513418022851
 30
0.0
 10
9.846355212927543
 20
6.199362977465868
 30
0.0
 10
9.852041611507252
 20
6.204725243731917
 30
0.0
 10
9.859882337021933
 20
6.214702235266287
 30
0.0
 10
9.86238819459309
 20
6.218357485203097
 30
0.0
 10
9.867099982102038
 20
6.226585680756927
 30
0.0
 10
9.86927540280133
 20
6.231113573913133
 30
0.0
 10
9.873023680058216
 20
6.241088946984233
 30
0.0
 10
9.874602645978792
 20
6.246592498557707
 30
0.0
 10
9.876770808490821
 20
6.25817941437973
 30
0.0
 10
9.877380101830266
 20
6.264485533111472
 30
0.0
 10
9.877380101830266
 20
6.27068771367635
 30
0.0
  0
LINE
  5
8D
330
1F
100
AcDbEntity
  8
0
  6
Continuous
 62
     7
370
    15
100
AcDbLine
 10
9.7494573861
 20
6.1706877137
 30
0.0
 11
10.1332255333
 21
6.1706877137
 31
0.0
  0
SPLINE
  5
8E
330
1F
100
AcDbEntity
  8
0
  6
Continuous
 62
     7
370
    15
100
AcDbSpline
210
0.0
220
0.0
230
1.0
 70
     8
 71
     3
 72
    22
 73
    18
 74
     0
 42
0.00000001
 43
0.00000001
 40
0.0
 40
0.0
 40
0.0
 40
0.0
 40
0.0624999999999998
 40
0.0624999999999998
 40
0.1249999999999996
 40
0.1249999999999996
 40
0.1874999999999994
 40
0.1874999999999994
 40
0.2499999999999992
 40
0.2499999999999992
 40
0.3749999999999988
 40
0.3749999999999988
 40
0.4999999999999984
 40
0.4999999999999984
 40
0.7499999999999992
 40
0.7499999999999992
 40
1.0
 40
1.0
 40
1.0
 40
1.0
 10
10.87042256483642
 20
6.27068771367635
 30
0.0
 10
10.87042256483642
 20
6.264373114613377
 30
0.0
 10
10.87101783859813
 20
6.258241757202853
 30
0.0
 10
10.87322808706467
 20
6.246455168269605
 30
0.0
 10
10.87480073529484
 20
6.241015225069065
 30
0.0
 10
10.87857611770105
 20
6.230999699234355
 30
0.0
 10
10.88073079624766
 20
6.226533727941012
 30
0.0
 10
10.88541420228932
 20
6.218360834770604
 30
0.0
 10
10.88796092837081
 20
6.214644671478515
 30
0.0
 10
10.89582684121526
 20
6.204653508138548
 30
0.0
 10
10.90142320845489
 20
6.199385293804427
 30
0.0
 10
10.91304386172656
 20
6.190539728547193
 30
0.0
 10
10.91901455403361
 20
6.187036060408234
 30
0.0
 10
10.93696386449372
 20
6.178484582371571
 30
0.0
 10
10.94912189600821
 20
6.175260349026033
 30
0.0
 10
10.97363338056821
 20
6.171335077060076
 30
0.0
 10
10.98600389133401
 20
6.170687713676351
 30
0.0
 10
10.99834528056047
 20
6.170687713676349
 30
0.0
  0
LINE
  5
8F
330
1F
100
AcDbEntity
  8
0
  6
Continuous
 62
     7
370
    15
100
AcDbLine
 10
10.6145771334
 20
6.1706877137
 30
0.0
 11
10.9983452806
 21
6.1706877137
 31
0.0
  0
SPLINE
  5
90
330
1F
100
AcDbEntity
  8
0
  6
Continuous
 62
     7
370
    15
100
AcDbSpline
210
0.0
220
0.0
230
1.0
 70
     8
 71
     3
 72
    20
 73
    16
 74
     0
 42
0.00000001
 43
0.00000001
 40
0.0
 40
0.0
 40
0.0
 40
0.0
 40
0.0624999999999999
 40
0.0624999999999999
 40
0.1249999999999997
 40
0.1249999999999997
 40
0.2499999999999999
 40
0.2499999999999999
 40
0.3750000000000001
 40
0.3750000000000001
 40
0.5000000000000002
 40
0.5000000000000002
 40
0.7499999999999999
 40
0.7499999999999999
 40
1.0
 40
1.0
 40
1.0
 40
1.0
 10
9.877380101830266
 20
7.07068771367635
 30
0.0
 10
9.877380101830266
 20
7.076878422611654
 30
0.0
 10
9.876781082301898
 20
7.083134724229301
 30
0.0
 10
9.874599526891037
 20
7.094805960961741
 30
0.0
 10
9.873013338598604
 20
7.100314138241647
 30
0.0
 10
9.86742103918238
 20
7.115196640436201
 30
0.0
 10
9.862525042735843
 20
7.123299052348552
 30
0.0
 10
9.85210617167918
 20
7.136579339966086
 30
0.0
 10
9.846436069760653
 20
7.141936273366657
 30
0.0
 10
9.834879423724312
 20
7.150754488625288
 30
0.0
 10
9.82897634751396
 20
7.154235594951976
 30
0.0
 10
9.811018911822284
 20
7.162832576603533
 30
0.0
 10
9.798675926436012
 20
7.166118878390245
 30
0.0
 10
9.774092072648214
 20
7.170049680841347
 30
0.0
 10
9.761779654253543
 20
7.17068771367635
 30
0.0
 10
9.749457386106211
 20
7.17068771367635
 30
0.0
  0
LINE
  5
91
330
1F
100
AcDbEntity
  8
0
  6
Continuous
 62
     7
370
    15
100
AcDbLine
 10
9.7494573861
 20
7.1706877137
 30
0.0
 11
10.1332255333
 21
7.1706877137
 31
0.0
  0
SPLINE
  5
92
330
1F
100
AcDbEntity
  8
0
  6
Continuous
 62
     7
370
    15
100
AcDbSpline
210
0.0
220
0.0
230
1.0
 70
     8
 71
     3
 72
    22
 73
    18
 74
     0
 42
0.00000001
 43
0.00000001
 40
0.0
 40
0.0
 40
0.0
 40
0.0
 40
0.2500000000000015
 40
0.2500000000000015
 40
0.500000000000003
 40
0.500000000000003
 40
0.6250000000000043
 40
0.6250000000000043
 40
0.7500000000000057
 40
0.7500000000000057
 40
0.8125000000000042
 40
0.8125000000000042
 40
0.8750000000000028
 40
0.8750000000000028
 40
0.9375000000000014
 40
0.9375000000000014
 40
1.0
 40
1.0
 40
1.0
 40
1.0
 10
11.33282259584258
 20
1.52068771367635
 30
0.0
 10
11.34482508660365
 20
1.520687713676351
 30
0.0
 10
11.35680257147514
 20
1.521439955014481
 30
0.0
 10
11.38066602064737
 20
1.5256976113527
 30
0.0
 10
11.39262736658015
 20
1.529194382638009
 30
0.0
 10
11.41003472257472
 20
1.538089735142479
 30
0.0
 10
11.41575291067463
 20
1.541665947744397
 30
0.0
 10
11.42693668792848
 20
1.550650260404286
 30
0.0
 10
11.43233809123232
 20
1.555994206613116
 30
0.0
 10
11.43985691669453
 20
1.565970042112178
 30
0.0
 10
11.44227876466511
 20
1.569655451684048
 30
0.0
 10
11.44672688334644
 20
1.577729341929156
 30
0.0
 10
11.4487700090003
 20
1.582128352437979
 30
0.0
 10
11.45234059560018
 20
1.591958267211391
 30
0.0
 10
11.45380342160257
 20
1.597216221756267
 30
0.0
 10
11.45586973137465
 20
1.608603202045382
 30
0.0
 10
11.45643308806407
 20
1.61458932573156
 30
0.0
 10
11.45643308806407
 20
1.620687713676294
 30
0.0
  0
SPLINE
  5
93
330
1F
100
AcDbEntity
  8
0
  6
Continuous
 62
     7
370
    15
100
AcDbSpline
210
0.0
220
0.0
230
1.0
 70
     8
 71
     3
 72
    22
 73
    18
 74
     0
 42
0.00000001
 43
0.00000001
 40
0.0
 40
0.0
 40
0.0
 40
0.0
 40
0.0625000000000004
 40
0.0625000000000004
 40
0.1250000000000009
 40
0.1250000000000009
 40
0.1875000000000013
 40
0.1875000000000013
 40
0.2500000000000017
 40
0.2500000000000017
 40
0.3750000000000016
 40
0.3750000000000016
 40
0.5000000000000014
 40
0.5000000000000014
 40
0.7500000000000007
 40
0.7500000000000007
 40
1.0
 40
1.0
 40
1.0
 40
1.0
 10
11.45643308806389
 20
3.610687713676339
 30
0.0
 10
11.45643308806389
 20
3.616820611470697
 30
0.0
 10
11.45587416191056
 20
3.622764973831193
 30
0.0
 10
11.45378040032195
 20
3.634268753288465
 30
0.0
 10
11.45229456726245
 20
3.639572219519011
 30
0.0
 10
11.44869283460367
 20
3.649430206882831
 30
0.0
 10
11.44663421270406
 20
3.653836536908062
 30
0.0
 10
11.44215657970014
 20
3.661918418029475
 30
0.0
 10
11.43971687024871
 20
3.665610144632712
 30
0.0
 10
11.43214889616383
 20
3.675592522006931
 30
0.0
 10
11.42675948324436
 20
3.680889856541151
 30
0.0
 10
11.41556347221369
 20
3.689838582610205
 30
0.0
 10
11.40977056382036
 20
3.693440137306858
 30
0.0
 10
11.39237967074492
 20
3.702267372495596
 30
0.0
 10
11.38059452363997
 20
3.705692654088259
 30
0.0
 10
11.35682107010853
 20
3.709930085439574
 30
0.0
 10
11.34480424033489
 20
3.71068771367635
 30
0.0
 10
11.33282259584258
 20
3.71068771367635
 30
0.0
  0
LINE
  5
94
330
1F
100
AcDbEntity
  8
0
  6
Continuous
 62
     7
370
    15
100
AcDbLine
 10
11.4564330881
 20
1.6206877137
 30
0.0
 11
11.4564330881
 21
3.6106877137
 31
0.0
  0
LINE
  5
95
330
1F
100
AcDbEntity
  8
0
  6
Continuous
 62
     7
370
    15
100
AcDbLine
 10
11.3328225958
 20
1.5206877137
 30
0.0
 11
11.0387777029
 21
1.5206877137
 31
0.0
  0
LINE
  5
96
330
1F
100
AcDbEntity
  8
0
  6
Continuous
 62
     7
370
    15
100
AcDbLine
 10
11.3328225958
 20
3.7106877137
 30
0.0
 11
11.0387777029
 21
3.7106877137
 31
0.0
  0
SPLINE
  5
97
330
1F
100
AcDbEntity
  8
0
  6
Continuous
 62
     7
370
    15
100
AcDbSpline
210
0.0
220
0.0
230
1.0
 70
     8
 71
     3
 72
    20
 73
    16
 74
     0
 42
0.00000001
 43
0.00000001
 40
0.0
 40
0.0
 40
0.0
 40
0.0
 40
0.0624999999999999
 40
0.0624999999999999
 40
0.1249999999999998
 40
0.1249999999999998
 40
0.2500000000000001
 40
0.2500000000000001
 40
0.3750000000000003
 40
0.3750000000000003
 40
0.5000000000000006
 40
0.5000000000000006
 40
0.7500000000000002
 40
0.7500000000000002
 40
1.0
 40
1.0
 40
1.0
 40
1.0
 10
9.291369578602794
 20
1.620687713676351
 30
0.0
 10
9.291369578602794
 20
1.614549354607387
 30
0.0
 10
9.291933341765851
 20
1.60857272114994
 30
0.0
 10
9.29402956591235
 20
1.597077789133426
 30
0.0
 10
9.295507534754792
 20
1.591807374790739
 30
0.0
 10
9.300894890579055
 20
1.577054262302287
 30
0.0
 10
9.305542203429225
 20
1.56911939675193
 30
0.0
 10
9.315682384799553
 20
1.555746121897807
 30
0.0
 10
9.321075812834076
 20
1.55045709342561
 30
0.0
 10
9.332245579383246
 20
1.541534147209992
 30
0.0
 10
9.338057546833362
 20
1.537918728581179
 30
0.0
 10
9.355514877193945
 20
1.529068756181094
 30
0.0
 10
9.367303401213624
 20
1.525659892719265
 30
0.0
 10
9.391037273719322
 20
1.521441357076545
 30
0.0
 10
9.402989154320574
 20
1.52068771367635
 30
0.0
 10
9.41498007082411
 20
1.52068771367635
 30
0.0
  0
LINE
  5
98
330
1F
100
AcDbEntity
  8
0
  6
Continuous
 62
     7
370
    15
100
AcDbLine
 10
9.2913695786
 20
1.6206877137
 30
0.0
 11
9.2913695786
 21
3.6106877137
 31
0.0
  0
SPLINE
  5
99
330
1F
100
AcDbEntity
  8
0
  6
Continuous
 62
     7
370
    15
100
AcDbSpline
210
0.0
220
0.0
230
1.0
 70
     8
 71
     3
 72
    20
 73
    16
 74
     0
 42
0.00000001
 43
0.00000001
 40
0.0
 40
0.0
 40
0.0
 40
0.0
 40
0.2499999999999998
 40
0.2499999999999998
 40
0.4999999999999996
 40
0.4999999999999996
 40
0.6249999999999997
 40
0.6249999999999997
 40
0.7499999999999998
 40
0.7499999999999998
 40
0.8749999999999999
 40
0.8749999999999999
 40
0.9374999999999999
 40
0.9374999999999999
 40
1.0
 40
1.0
 40
1.0
 40
1.0
 10
9.41498007082411
 20
3.71068771367635
 30
0.0
 10
9.402995785072175
 20
3.71068771367635
 30
0.0
 10
9.390970135932239
 20
3.709929756688747
 30
0.0
 10
9.367176012587928
 20
3.70568520993143
 30
0.0
 10
9.355389507832392
 20
3.702253335988311
 30
0.0
 10
9.338019834946559
 20
3.693432426022546
 30
0.0
 10
9.332247269298495
 20
3.689845416035275
 30
0.0
 10
9.3210289730716
 20
3.680878118933777
 30
0.0
 10
9.315630827046638
 20
3.675569236816234
 30
0.0
 10
9.305529911327236
 20
3.662231841256068
 30
0.0
 10
9.3008536774724
 20
3.654228659056692
 30
0.0
 10
9.295495045499967
 20
3.639523579186866
 30
0.0
 10
9.294018769951313
 20
3.634252490185013
 30
0.0
 10
9.291928803629064
 20
3.622763664248088
 30
0.0
 10
9.291369578602794
 20
3.616793361785929
 30
0.0
 10
9.291369578602794
 20
3.61068771367635
 30
0.0
  0
LINE
  5
9A
330
1F
100
AcDbEntity
  8
0
  6
Continuous
 62
     7
370
    15
100
AcDbLine
 10
9.7090249637
 20
1.5206877137
 30
0.0
 11
9.4149800708
 21
1.5206877137
 31
0.0
  0
LINE
  5
9B
330
1F
100
AcDbEntity
  8
0
  6
Continuous
 62
     7
370
    15
100
AcDbLine
 10
9.7090249637
 20
3.7106877137
 30
0.0
 11
9.4149800708
 21
3.7106877137
 31
0.0
  0
SPLINE
  5
9C
330
1F
100
AcDbEntity
  8
0
  6
Continuous
 62
     7
370
    15
100
AcDbSpline
210
0.0
220
0.0
230
1.0
 70
     8
 71
     3
 72
    22
 73
    18
 74
     0
 42
0.00000001
 43
0.00000001
 40
0.0
 40
0.0
 40
0.0
 40
0.0
 40
0.2499999999999988
 40
0.2499999999999988
 40
0.4999999999999977
 40
0.4999999999999977
 40
0.6249999999999974
 40
0.6249999999999974
 40
0.7499999999999971
 40
0.7499999999999971
 40
0.8124999999999979
 40
0.8124999999999979
 40
0.8749999999999986
 40
0.8749999999999986
 40
0.9374999999999993
 40
0.9374999999999993
 40
1.0
 40
1.0
 40
1.0
 40
1.0
 10
11.23902108061545
 20
6.170687713676349
 30
0.0
 10
11.25134174272308
 20
6.170687713676349
 30
0.0
 10
11.26366044083661
 20
6.171324474703535
 30
0.0
 10
11.28828960626463
 20
6.17526656488336
 30
0.0
 10
11.30059206893043
 20
6.178534291293134
 30
0.0
 10
11.31866575248814
 20
6.187206631185952
 30
0.0
 10
11.32458465254048
 20
6.190716711713503
 30
0.0
 10
11.33606348175444
 20
6.199500217304441
 30
0.0
 10
11.34166608787535
 20
6.20478318963671
 30
0.0
 10
11.34953558134662
 20
6.214826105057185
 30
0.0
 10
11.35203806024413
 20
6.21849374781394
 30
0.0
 10
11.35671700916278
 20
6.226693463242383
 30
0.0
 10
11.35888029760752
 20
6.231215518316828
 30
0.0
 10
11.36258082198361
 20
6.241079283716577
 30
0.0
 10
11.36415977000905
 20
6.246560492385193
 30
0.0
 10
11.36633757419451
 20
6.258192724953552
 30
0.0
 10
11.36694379633951
 20
6.264398477751554
 30
0.0
 10
11.36694379633951
 20
6.27068771367635
 30
0.0
  0
SPLINE
  5
9D
330
1F
100
AcDbEntity
  8
0
  6
Continuous
 62
     7
370
    15
100
AcDbSpline
210
0.0
220
0.0
230
1.0
 70
     8
 71
     3
 72
    22
 73
    18
 74
     0
 42
0.00000001
 43
0.00000001
 40
0.0
 40
0.0
 40
0.0
 40
0.0
 40
0.0625
 40
0.0625
 40
0.125
 40
0.125
 40
0.1874999999999999
 40
0.1874999999999999
 40
0.2499999999999999
 40
0.2499999999999999
 40
0.3749999999999999
 40
0.3749999999999999
 40
0.4999999999999999
 40
0.4999999999999999
 40
0.7499999999999999
 40
0.7499999999999999
 40
1.0
 40
1.0
 40
1.0
 40
1.0
 10
11.3669437963395
 20
7.070687713675736
 30
0.0
 10
11.36694379633954
 20
7.077002312738736
 30
0.0
 10
11.36634852257787
 20
7.083133670149268
 30
0.0
 10
11.36413827411138
 20
7.094920259082599
 30
0.0
 10
11.36256562588123
 20
7.100360202283167
 30
0.0
 10
11.35879024347505
 20
7.110375728117959
 30
0.0
 10
11.35663556492845
 20
7.114841699411335
 30
0.0
 10
11.35195215888679
 20
7.123014592581801
 30
0.0
 10
11.34940543280531
 20
7.126730755873918
 30
0.0
 10
11.34153951996085
 20
7.136721919213957
 30
0.0
 10
11.33594315272121
 20
7.141990133548112
 30
0.0
 10
11.32432249944953
 20
7.1508356988054
 30
0.0
 10
11.31835180714247
 20
7.15433936694438
 30
0.0
 10
11.30040249668233
 20
7.162890844981094
 30
0.0
 10
11.28824446516781
 20
7.166115078326646
 30
0.0
 10
11.26373298060776
 20
7.170040350292622
 30
0.0
 10
11.25136246984193
 20
7.170687713676351
 30
0.0
 10
11.23902108061545
 20
7.17068771367635
 30
0.0
  0
LINE
  5
9E
330
1F
100
AcDbEntity
  8
0
  6
Continuous
 62
     7
370
    15
100
AcDbLine
 10
11.3669437963
 20
7.0706877137
 30
0.0
 11
11.3669437963
 21
6.2706877137
 31
0.0
  0
LINE
  5
9F
330
1F
100
AcDbEntity
  8
0
  6
Continuous
 62
     7
370
    15
100
AcDbLine
 10
10.9983452806
 20
6.1706877137
 30
0.0
 11
11.2390210806
 21
6.1706877137
 31
0.0
  0
LINE
  5
A0
330
1F
100
AcDbEntity
  8
0
  6
Continuous
 62
     7
370
    15
100
AcDbLine
 10
10.9983452806
 20
7.1706877137
 30
0.0
 11
11.2390210806
 21
7.1706877137
 31
0.0
  0
SPLINE
  5
A1
330
1F
100
AcDbEntity
  8
0
  6
Continuous
 62
     7
370
    15
100
AcDbSpline
210
0.0
220
0.0
230
1.0
 70
     8
 71
     3
 72
    20
 73
    16
 74
     0
 42
0.00000001
 43
0.00000001
 40
0.0
 40
0.0
 40
0.0
 40
0.0
 40
0.0625
 40
0.0625
 40
0.1249999999999999
 40
0.1249999999999999
 40
0.2499999999999999
 40
0.2499999999999999
 40
0.3749999999999998
 40
0.3749999999999998
 40
0.4999999999999998
 40
0.4999999999999998
 40
0.7499999999999997
 40
0.7499999999999997
 40
1.0
 40
1.0
 40
1.0
 40
1.0
 10
9.380858870327186
 20
6.27068771367635
 30
0.0
 10
9.380858870327186
 20
6.264497004741045
 30
0.0
 10
9.381457889855554
 20
6.258240703123398
 30
0.0
 10
9.383639445266416
 20
6.246569466390959
 30
0.0
 10
9.385225633558848
 20
6.241061289111053
 30
0.0
 10
9.390817932975072
 20
6.226178786916498
 30
0.0
 10
9.39571392942161
 20
6.218076375004149
 30
0.0
 10
9.406132800478272
 20
6.204796087386613
 30
0.0
 10
9.4118029023968
 20
6.199439153986042
 30
0.0
 10
9.42335954843314
 20
6.19062093872741
 30
0.0
 10
9.429262624643494
 20
6.187139832400724
 30
0.0
 10
9.44722006033517
 20
6.178542850749166
 30
0.0
 10
9.459563045721442
 20
6.175256548962454
 30
0.0
 10
9.484146899509238
 20
6.171325746511352
 30
0.0
 10
9.496459317903911
 20
6.170687713676349
 30
0.0
 10
9.50878158605124
 20
6.170687713676349
 30
0.0
  0
LINE
  5
A2
330
1F
100
AcDbEntity
  8
0
  6
Continuous
 62
     7
370
    15
100
AcDbLine
 10
9.3808588703
 20
7.0706877137
 30
0.0
 11
9.3808588703
 21
6.2706877137
 31
0.0
  0
SPLINE
  5
A3
330
1F
100
AcDbEntity
  8
0
  6
Continuous
 62
     7
370
    15
100
AcDbSpline
210
0.0
220
0.0
230
1.0
 70
     8
 71
     3
 72
    22
 73
    18
 74
     0
 42
0.00000001
 43
0.00000001
 40
0.0
 40
0.0
 40
0.0
 40
0.0
 40
0.2499999999999984
 40
0.2499999999999984
 40
0.4999999999999966
 40
0.4999999999999966
 40
0.6249999999999959
 40
0.6249999999999959
 40
0.7499999999999952
 40
0.7499999999999952
 40
0.8124999999999963
 40
0.8124999999999963
 40
0.8749999999999976
 40
0.8749999999999976
 40
0.9374999999999987
 40
0.9374999999999987
 40
1.0
 40
1.0
 40
1.0
 40
1.0
 10
9.50878158605124
 20
7.17068771367635
 30
0.0
 10
9.496487573033486
 20
7.17068771367635
 30
0.0
 10
9.484219605761925
 20
7.170050254260884
 30
0.0
 10
9.459790279947955
 20
7.16616612862655
 30
0.0
 10
9.447626501963967
 20
7.162978677290681
 30
0.0
 10
9.429536406105548
 20
7.154389958244164
 30
0.0
 10
9.423519832271463
 20
7.150862009329848
 30
0.0
 10
9.41188375922991
 20
7.142012449886832
 30
0.0
 10
9.406197360650202
 20
7.136650183620783
 30
0.0
 10
9.39835663513552
 20
7.126673192086412
 30
0.0
 10
9.39585077756436
 20
7.123017942149603
 30
0.0
 10
9.391138990055415
 20
7.114789746595772
 30
0.0
 10
9.388963569356122
 20
7.110261853439567
 30
0.0
 10
9.385215292099236
 20
7.100286480368467
 30
0.0
 10
9.38363632617866
 20
7.094782928794992
 30
0.0
 10
9.38146816366663
 20
7.083196012972969
 30
0.0
 10
9.380858870327186
 20
7.076889894241227
 30
0.0
 10
9.380858870327186
 20
7.07068771367635
 30
0.0
  0
LINE
  5
A4
330
1F
100
AcDbEntity
  8
0
  6
Continuous
 62
     7
370
    15
100
AcDbLine
 10
9.5087815861
 20
6.1706877137
 30
0.0
 11
9.7494573861
 21
6.1706877137
 31
0.0
  0
LINE
  5
A5
330
1F
100
AcDbEntity
  8
0
  6
Continuous
 62
     7
370
    15
100
AcDbLine
 10
9.5087815861
 20
7.1706877137
 30
0.0
 11
9.7494573861
 21
7.1706877137
 31
0.0
  0
SPLINE
  5
A6
330
1F
100
AcDbEntity
  8
0
  6
Continuous
 62
     7
370
    15
100
AcDbSpline
210
0.0
220
0.0
230
1.0
 70
     8
 71
     3
 72
    16
 73
    12
 74
     0
 42
0.00000001
 43
0.00000001
 40
0.0
 40
0.0
 40
0.0
 40
0.0
 40
0.2499999999999985
 40
0.2499999999999985
 40
0.4999999999999969
 40
0.4999999999999969
 40
0.7499999999999952
 40
0.7499999999999952
 40
0.8749999999999977
 40
0.8749999999999977
 40
1.0
 40
1.0
 40
1.0
 40
1.0
 10
10.54152682785721
 20
7.410687713676349
 30
0.0
 10
10.55332246215501
 20
7.410687713676349
 30
0.0
 10
10.56509556379649
 20
7.411099612849623
 30
0.0
 10
10.58849011135312
 20
7.413321873382575
 30
0.0
 10
10.60018559826898
 20
7.415120272385591
 30
0.0
 10
10.62303071378377
 20
7.421179805944938
 30
0.0
 10
10.6342530496899
 20
7.425386918384238
 30
0.0
 10
10.64880797000262
 20
7.435236811512105
 30
0.0
 10
10.65338183481701
 20
7.43922493124031
 30
0.0
 10
10.66031259935128
 20
7.448909788181707
 30
0.0
 10
10.66257646792822
 20
7.454667569204563
 30
0.0
 10
10.66257646792822
 20
7.460687713676345
 30
0.0
  0
LINE
  5
A7
330
1F
100
AcDbEntity
  8
0
  6
Continuous
 62
     7
370
    15
100
AcDbLine
 10
10.3739013333
 20
7.4106877137
 30
0.0
 11
10.5415268279
 21
7.4106877137
 31
0.0
  0
LINE
  5
A8
330
1F
100
AcDbEntity
  8
0
  6
Continuous
 62
     7
370
    15
100
AcDbLine
 10
10.2062758388
 20
7.4106877137
 30
0.0
 11
10.3739013333
 21
7.4106877137
 31
0.0
  0
SPLINE
  5
A9
330
1F
100
AcDbEntity
  8
0
  6
Continuous
 62
     7
370
    15
100
AcDbSpline
210
0.0
220
0.0
230
1.0
 70
     8
 71
     3
 72
    18
 73
    14
 74
     0
 42
0.00000001
 43
0.00000001
 40
0.0
 40
0.0
 40
0.0
 40
0.0
 40
0.1249999999999997
 40
0.1249999999999997
 40
0.2499999999999994
 40
0.2499999999999994
 40
0.3749999999999991
 40
0.3749999999999991
 40
0.4999999999999988
 40
0.4999999999999988
 40
0.7499999999999993
 40
0.7499999999999993
 40
1.0
 40
1.0
 40
1.0
 40
1.0
 10
10.08522619873853
 20
7.46068771367635
 30
0.0
 10
10.08522619873853
 20
7.454663177076736
 30
0.0
 10
10.0874746147997
 20
7.448922707070995
 30
0.0
 10
10.09447296757743
 20
7.439160797875569
 30
0.0
 10
10.09899203400001
 20
7.435229473109597
 30
0.0
 10
10.10884625355986
 20
7.42857914789013
 30
0.0
 10
10.11411254585017
 20
7.425922170912701
 30
0.0
 10
10.12505594696541
 20
7.421417520791421
 30
0.0
 10
10.13073806790743
 20
7.419588535130212
 30
0.0
 10
10.14779584140738
 20
7.41509098498859
 30
0.0
 10
10.15935872817747
 20
7.413316841947093
 30
0.0
 10
10.18269252752413
 20
7.411101643694724
 30
0.0
 10
10.19449175565033
 20
7.410687713676352
 30
0.0
 10
10.20627583880948
 20
7.410687713676349
 30
0.0
  0
LINE
  5
AA
330
1F
100
AcDbEntity
  8
0
  6
Continuous
 62
     7
370
    15
100
AcDbLine
 10
10.0852261987
 20
7.6606877137
 30
0.0
 11
10.0852261987
 21
7.4606877137
 31
0.0
  0
SPLINE
  5
AB
330
1F
100
AcDbEntity
  8
0
  6
Continuous
 62
     7
370
    15
100
AcDbSpline
210
0.0
220
0.0
230
1.0
 70
     8
 71
     3
 72
    16
 73
    12
 74
     0
 42
0.00000001
 43
0.00000001
 40
0.0
 40
0.0
 40
0.0
 40
0.0
 40
0.2500000000000002
 40
0.2500000000000002
 40
0.5000000000000003
 40
0.5000000000000003
 40
0.7500000000000004
 40
0.7500000000000004
 40
0.8750000000000002
 40
0.8750000000000002
 40
1.0
 40
1.0
 40
1.0
 40
1.0
 10
10.20627583880948
 20
7.71068771367635
 30
0.0
 10
10.19448020451168
 20
7.71068771367635
 30
0.0
 10
10.18270710287019
 20
7.710275814503077
 30
0.0
 10
10.15931255531356
 20
7.708053553970125
 30
0.0
 10
10.14761706839771
 20
7.706255154967108
 30
0.0
 10
10.12477195288292
 20
7.700195621407762
 30
0.0
 10
10.11354961697678
 20
7.695988508968463
 30
0.0
 10
10.09899469666407
 20
7.686138615840595
 30
0.0
 10
10.09442083184967
 20
7.68215049611239
 30
0.0
 10
10.08749006731541
 20
7.672465639170993
 30
0.0
 10
10.08522619873846
 20
7.666707858148136
 30
0.0
 10
10.08522619873846
 20
7.660687713676356
 30
0.0
  0
LINE
  5
AC
330
1F
100
AcDbEntity
  8
0
  6
Continuous
 62
     7
370
    15
100
AcDbLine
 10
10.2062758388
 20
7.7106877137
 30
0.0
 11
10.5415268279
 21
7.7106877137
 31
0.0
  0
SPLINE
  5
AD
330
1F
100
AcDbEntity
  8
0
  6
Continuous
 62
     7
370
    15
100
AcDbSpline
210
0.0
220
0.0
230
1.0
 70
     8
 71
     3
 72
    18
 73
    14
 74
     0
 42
0.00000001
 43
0.00000001
 40
0.0
 40
0.0
 40
0.0
 40
0.0
 40
0.1250000000000001
 40
0.1250000000000001
 40
0.2500000000000001
 40
0.2500000000000001
 40
0.3750000000000002
 40
0.3750000000000002
 40
0.5000000000000002
 40
0.5000000000000002
 40
0.7500000000000001
 40
0.7500000000000001
 40
1.0
 40
1.0
 40
1.0
 40
1.0
 10
10.66257646792816
 20
7.66068771367635
 30
0.0
 10
10.66257646792816
 20
7.666712250275966
 30
0.0
 10
10.66032805186699
 20
7.672452720281705
 30
0.0
 10
10.65332969908926
 20
7.682214629477129
 30
0.0
 10
10.64881063266668
 20
7.686145954243104
 30
0.0
 10
10.63895641310683
 20
7.692796279462572
 30
0.0
 10
10.63369012081651
 20
7.695453256439999
 30
0.0
 10
10.62274671970127
 20
7.699957906561278
 30
0.0
 10
10.61706459875926
 20
7.701786892222488
 30
0.0
 10
10.60000682525931
 20
7.706284442364111
 30
0.0
 10
10.58844393848921
 20
7.708058585405606
 30
0.0
 10
10.56511013914256
 20
7.710273783657976
 30
0.0
 10
10.55331091101636
 20
7.710687713676349
 30
0.0
 10
10.54152682785721
 20
7.71068771367635
 30
0.0
  0
LINE
  5
AE
330
1F
100
AcDbEntity
  8
0
  6
Continuous
 62
     7
370
    15
100
AcDbLine
 10
10.6625764679
 20
7.6606877137
 30
0.0
 11
10.6625764679
 21
7.4606877137
 31
0.0
  0
CIRCLE
  5
AF
330
1F
100
AcDbEntity
  8
0
  6
Continuous
 62
     7
370
    15
100
AcDbCircle
 10
10.3739013333
 20
2.6156877137
 30
0.0
 40
0.3593749999999982
  0
SPLINE
  5
B0
330
1F
100
AcDbEntity
  8
0
  6
Continuous
 62
     7
370
    15
100
AcDbSpline
210
0.0
220
0.0
230
1.0
 70
     8
 71
     3
 72
    18
 73
    14
 74
     0
 42
0.00000001
 43
0.00000001
 40
0.0
 40
0.0
 40
0.0
 40
0.0
 40
0.2500000000000018
 40
0.2500000000000018
 40
0.5000000000000036
 40
0.5000000000000036
 40
0.6250000000000027
 40
0.6250000000000027
 40
0.7500000000000018
 40
0.7500000000000018
 40
0.8750000000000009
 40
0.8750000000000009
 40
1.0
 40
1.0
 40
1.0
 40
1.0
 10
10.02470137870306
 20
7.410687713676349
 30
0.0
 10
10.030578637189
 20
7.410687713676349
 30
0.0
 10
10.03647031929059
 20
7.41109572778621
 30
0.0
 10
10.04822163481735
 20
7.41333016541837
 30
0.0
 10
10.05402984502742
 20
7.415123799398037
 30
0.0
 10
10.06255982512509
 20
7.419642846067374
 30
0.0
 10
10.06538867530012
 20
7.421471604642877
 30
0.0
 10
10.07086104067821
 20
7.425996270416666
 30
0.0
 10
10.07352551804181
 20
7.428705321610615
 30
0.0
 10
10.07840727806321
 20
7.435338041088682
 30
0.0
 10
10.08067169077575
 20
7.4393204905057
 30
0.0
 10
10.08410317261388
 20
7.448959128882264
 30
0.0
 10
10.08522619873853
 20
7.454742224175686
 30
0.0
 10
10.08522619873853
 20
7.460687713676351
 30
0.0
  0
LINE
  5
B1
330
1F
100
AcDbEntity
  8
0
  6
Continuous
 62
     7
370
    15
100
AcDbLine
 10
10.0247013787
 20
7.4106877137
 30
0.0
 11
10.2062758388
 21
7.4106877137
 31
0.0
  0
SPLINE
  5
B2
330
1F
100
AcDbEntity
  8
0
  6
Continuous
 62
     7
370
    15
100
AcDbSpline
210
0.0
220
0.0
230
1.0
 70
     8
 71
     3
 72
    16
 73
    12
 74
     0
 42
0.00000001
 43
0.00000001
 40
0.0
 40
0.0
 40
0.0
 40
0.0
 40
0.25
 40
0.25
 40
0.5
 40
0.5
 40
0.75
 40
0.75
 40
0.875
 40
0.875
 40
1.0
 40
1.0
 40
1.0
 40
1.0
 10
10.72310128796363
 20
7.71068771367635
 30
0.0
 10
10.71720347081473
 20
7.710687713676349
 30
0.0
 10
10.71131691999399
 20
7.710275814503077
 30
0.0
 10
10.69961964621567
 20
7.708053553970124
 30
0.0
 10
10.69377190275775
 20
7.706255154967108
 30
0.0
 10
10.68234934500035
 20
7.700195621407762
 30
0.0
 10
10.67673817704728
 20
7.695988508968462
 30
0.0
 10
10.66946071689093
 20
7.686138615840594
 30
0.0
 10
10.66717378448373
 20
7.682150496112389
 30
0.0
 10
10.6637084022166
 20
7.672465639170995
 30
0.0
 10
10.66257646792812
 20
7.666707858148136
 30
0.0
 10
10.66257646792812
 20
7.660687713676356
 30
0.0
  0
LINE
  5
B3
330
1F
100
AcDbEntity
  8
0
  6
Continuous
 62
     7
370
    15
100
AcDbLine
 10
10.723101288
 20
7.7106877137
 30
0.0
 11
10.5415268279
 21
7.7106877137
 31
0.0
  0
SPLINE
  5
B4
330
1F
100
AcDbEntity
  8
0
  6
Continuous
 62
     7
370
    15
100
AcDbSpline
210
0.0
220
0.0
230
1.0
 70
     8
 71
     3
 72
    18
 73
    14
 74
     0
 42
0.00000001
 43
0.00000001
 40
0.0
 40
0.0
 40
0.0
 40
0.0
 40
0.125
 40
0.125
 40
0.2500000000000001
 40
0.2500000000000001
 40
0.3750000000000001
 40
0.3750000000000001
 40
0.5000000000000001
 40
0.5000000000000001
 40
0.7500000000000002
 40
0.7500000000000002
 40
1.0
 40
1.0
 40
1.0
 40
1.0
 10
10.66257646792816
 20
7.46068771367635
 30
0.0
 10
10.66257646792816
 20
7.454663177076736
 30
0.0
 10
10.66370067595874
 20
7.448922707070995
 30
0.0
 10
10.66719985234761
 20
7.43916079787557
 30
0.0
 10
10.66945938555889
 20
7.435229473109597
 30
0.0
 10
10.67438649533882
 20
7.42857914789013
 30
0.0
 10
10.67701964148398
 20
7.425922170912701
 30
0.0
 10
10.6824913420416
 20
7.421417520791423
 30
0.0
 10
10.68533240251261
 20
7.419588535130212
 30
0.0
 10
10.69386128926258
 20
7.41509098498859
 30
0.0
 10
10.69964273264763
 20
7.413316841947093
 30
0.0
 10
10.71130963232096
 20
7.411101643694724
 30
0.0
 10
10.71720924638406
 20
7.410687713676352
 30
0.0
 10
10.72310128796363
 20
7.410687713676349
 30
0.0
  0
LINE
  5
B5
330
1F
100
AcDbEntity
  8
0
  6
Continuous
 62
     7
370
    15
100
AcDbLine
 10
10.5415268279
 20
7.4106877137
 30
0.0
 11
10.723101288
 21
7.4106877137
 31
0.0
  0
SPLINE
  5
B6
330
1F
100
AcDbEntity
  8
0
  6
Continuous
 62
     7
370
    15
100
AcDbSpline
210
0.0
220
0.0
230
1.0
 70
     8
 71
     3
 72
    18
 73
    14
 74
     0
 42
0.00000001
 43
0.00000001
 40
0.0
 40
0.0
 40
0.0
 40
0.0
 40
0.1250000000000009
 40
0.1250000000000009
 40
0.2500000000000018
 40
0.2500000000000018
 40
0.3750000000000028
 40
0.3750000000000028
 40
0.5000000000000037
 40
0.5000000000000037
 40
0.7500000000000018
 40
0.7500000000000018
 40
1.0
 40
1.0
 40
1.0
 40
1.0
 10
10.08522619873853
 20
7.660687713676349
 30
0.0
 10
10.08522619873853
 20
7.666715693097628
 30
0.0
 10
10.08409264005882
 20
7.672477002388795
 30
0.0
 10
10.08061599935236
 20
7.682179648318854
 30
0.0
 10
10.07835555684613
 20
7.686129609471481
 30
0.0
 10
10.07340212642454
 20
7.692815012069714
 30
0.0
 10
10.07075987221896
 20
7.695474409548072
 30
0.0
 10
10.06530078064521
 20
7.699964481952746
 30
0.0
 10
10.06245884899039
 20
7.701795070371338
 30
0.0
 10
10.05388119576618
 20
7.706311829391024
 30
0.0
 10
10.04809412590719
 20
7.708075615674606
 30
0.0
 10
10.03644706724005
 20
7.710277932440584
 30
0.0
 10
10.03058549657513
 20
7.710687713676349
 30
0.0
 10
10.02470137870306
 20
7.71068771367635
 30
0.0
  0
LINE
  5
B7
330
1F
100
AcDbEntity
  8
0
  6
Continuous
 62
     7
370
    15
100
AcDbLine
 10
10.0247013787
 20
7.7106877137
 30
0.0
 11
10.2062758388
 21
7.7106877137
 31
0.0
  0
SPLINE
  5
B8
330
1F
100
AcDbEntity
  8
0
  6
Continuous
 62
     7
370
    15
100
AcDbSpline
210
0.0
220
0.0
230
1.0
 70
     8
 71
     3
 72
    16
 73
    12
 74
     0
 42
0.00000001
 43
0.00000001
 40
0.0
 40
0.0
 40
0.0
 40
0.0
 40
0.2499999999999999
 40
0.2499999999999999
 40
0.4999999999999999
 40
0.4999999999999999
 40
0.7499999999999998
 40
0.7499999999999998
 40
0.8749999999999999
 40
0.8749999999999999
 40
1.0
 40
1.0
 40
1.0
 40
1.0
 10
10.8907267824875
 20
7.410687713676349
 30
0.0
 10
10.89662459963639
 20
7.410687713676349
 30
0.0
 10
10.90251115045714
 20
7.411099612849624
 30
0.0
 10
10.91420842423545
 20
7.413321873382576
 30
0.0
 10
10.92005616769338
 20
7.415120272385591
 30
0.0
 10
10.93147872545078
 20
7.42117980594494
 30
0.0
 10
10.93708989340384
 20
7.425386918384238
 30
0.0
 10
10.9443673535602
 20
7.435236811512105
 30
0.0
 10
10.9466542859674
 20
7.439224931240308
 30
0.0
 10
10.95011966823453
 20
7.448909788181707
 30
0.0
 10
10.951251602523
 20
7.454667569204563
 30
0.0
 10
10.951251602523
 20
7.460687713676345
 30
0.0
  0
LINE
  5
B9
330
1F
100
AcDbEntity
  8
0
  6
Continuous
 62
     7
370
    15
100
AcDbLine
 10
10.8069140352
 20
7.4106877137
 30
0.0
 11
10.8907267825
 21
7.4106877137
 31
0.0
  0
SPLINE
  5
BA
330
1F
100
AcDbEntity
  8
0
  6
Continuous
 62
     7
370
    15
100
AcDbSpline
210
0.0
220
0.0
230
1.0
 70
     8
 71
     3
 72
    18
 73
    14
 74
     0
 42
0.00000001
 43
0.00000001
 40
0.0
 40
0.0
 40
0.0
 40
0.0
 40
0.1249999999999998
 40
0.1249999999999998
 40
0.2499999999999996
 40
0.2499999999999996
 40
0.3749999999999993
 40
0.3749999999999993
 40
0.4999999999999994
 40
0.4999999999999994
 40
0.7499999999999997
 40
0.7499999999999997
 40
1.0
 40
1.0
 40
1.0
 40
1.0
 10
10.95125160252297
 20
7.66068771367635
 30
0.0
 10
10.95125160252297
 20
7.666712250275966
 30
0.0
 10
10.95012739449239
 20
7.672452720281705
 30
0.0
 10
10.94662821810352
 20
7.682214629477129
 30
0.0
 10
10.94436868489223
 20
7.686145954243104
 30
0.0
 10
10.9394415751123
 20
7.692796279462572
 30
0.0
 10
10.93680842896715
 20
7.695453256439999
 30
0.0
 10
10.93133672840953
 20
7.699957906561278
 30
0.0
 10
10.92849566793852
 20
7.701786892222488
 30
0.0
 10
10.91996678118855
 20
7.706284442364111
 30
0.0
 10
10.9141853378035
 20
7.708058585405606
 30
0.0
 10
10.90251843813017
 20
7.710273783657976
 30
0.0
 10
10.89661882406707
 20
7.71068771367635
 30
0.0
 10
10.8907267824875
 20
7.71068771367635
 30
0.0
  0
LINE
  5
BB
330
1F
100
AcDbEntity
  8
0
  6
Continuous
 62
     7
370
    15
100
AcDbLine
 10
10.9512516025
 20
7.6606877137
 30
0.0
 11
10.9512516025
 21
7.4606877137
 31
0.0
  0
LINE
  5
BC
330
1F
100
AcDbEntity
  8
0
  6
Continuous
 62
     7
370
    15
100
AcDbLine
 10
10.723101288
 20
7.4106877137
 30
0.0
 11
10.8069140352
 21
7.4106877137
 31
0.0
  0
LINE
  5
BD
330
1F
100
AcDbEntity
  8
0
  6
Continuous
 62
     7
370
    15
100
AcDbLine
 10
10.723101288
 20
7.7106877137
 30
0.0
 11
10.8907267825
 21
7.7106877137
 31
0.0
  0
LINE
  5
BE
330
1F
100
AcDbEntity
  8
0
  6
Continuous
 62
     7
370
    15
100
AcDbLine
 10
9.8570758842
 20
7.4106877137
 30
0.0
 11
9.9408886314
 21
7.4106877137
 31
0.0
  0
SPLINE
  5
BF
330
1F
100
AcDbEntity
  8
0
  6
Continuous
 62
     7
370
    15
100
AcDbSpline
210
0.0
220
0.0
230
1.0
 70
     8
 71
     3
 72
    18
 73
    14
 74
     0
 42
0.00000001
 43
0.00000001
 40
0.0
 40
0.0
 40
0.0
 40
0.0
 40
0.125
 40
0.125
 40
0.25
 40
0.25
 40
0.375
 40
0.375
 40
0.5
 40
0.5
 40
0.75
 40
0.75
 40
1.0
 40
1.0
 40
1.0
 40
1.0
 10
9.796551064143717
 20
7.46068771367635
 30
0.0
 10
9.796551064143717
 20
7.454659734255074
 30
0.0
 10
9.797684622823429
 20
7.448898424963906
 30
0.0
 10
9.801161263529886
 20
7.439195779033845
 30
0.0
 10
9.803421706036115
 20
7.435245817881219
 30
0.0
 10
9.808375136457713
 20
7.428560415282986
 30
0.0
 10
9.811017390663288
 20
7.425901017804628
 30
0.0
 10
9.816476482237034
 20
7.421410945399955
 30
0.0
 10
9.81931841389186
 20
7.419580356981362
 30
0.0
 10
9.82789606711607
 20
7.415063597961677
 30
0.0
 10
9.833683136975063
 20
7.413299811678097
 30
0.0
 10
9.845330195642203
 20
7.411097494912115
 30
0.0
 10
9.851191766307114
 20
7.410687713676349
 30
0.0
 10
9.85707588417919
 20
7.410687713676349
 30
0.0
  0
LINE
  5
C0
330
1F
100
AcDbEntity
  8
0
  6
Continuous
 62
     7
370
    15
100
AcDbLine
 10
9.7965510641
 20
7.6606877137
 30
0.0
 11
9.7965510641
 21
7.4606877137
 31
0.0
  0
SPLINE
  5
C1
330
1F
100
AcDbEntity
  8
0
  6
Continuous
 62
     7
370
    15
100
AcDbSpline
210
0.0
220
0.0
230
1.0
 70
     8
 71
     3
 72
    18
 73
    14
 74
     0
 42
0.00000001
 43
0.00000001
 40
0.0
 40
0.0
 40
0.0
 40
0.0
 40
0.25
 40
0.25
 40
0.5
 40
0.5
 40
0.625
 40
0.625
 40
0.75
 40
0.75
 40
0.875
 40
0.875
 40
1.0
 40
1.0
 40
1.0
 40
1.0
 10
9.85707588417919
 20
7.71068771367635
 30
0.0
 10
9.851198625693245
 20
7.71068771367635
 30
0.0
 10
9.845306943591657
 20
7.710279699566489
 30
0.0
 10
9.8335556280649
 20
7.70804526193433
 30
0.0
 10
9.827747417854825
 20
7.706251627954662
 30
0.0
 10
9.819217437757157
 20
7.701732581285325
 30
0.0
 10
9.81638858758213
 20
7.699903822709825
 30
0.0
 10
9.810916222204037
 20
7.695379156936035
 30
0.0
 10
9.80825174484044
 20
7.692670105742086
 30
0.0
 10
9.803369984819037
 20
7.686037386264018
 30
0.0
 10
9.801105572106497
 20
7.682054936847003
 30
0.0
 10
9.797674090268366
 20
7.672416298470435
 30
0.0
 10
9.796551064143715
 20
7.666633203177014
 30
0.0
 10
9.796551064143715
 20
7.66068771367635
 30
0.0
  0
LINE
  5
C2
330
1F
100
AcDbEntity
  8
0
  6
Continuous
 62
     7
370
    15
100
AcDbLine
 10
9.9408886314
 20
7.4106877137
 30
0.0
 11
10.0247013787
 21
7.4106877137
 31
0.0
  0
LINE
  5
C3
330
1F
100
AcDbEntity
  8
0
  6
Continuous
 62
     7
370
    15
100
AcDbLine
 10
9.8570758842
 20
7.7106877137
 30
0.0
 11
10.0247013787
 21
7.7106877137
 31
0.0
  0
LINE
  5
C4
330
1F
100
AcDbEntity
  8
0
  6
Continuous
 62
     7
370
    15
100
AcDbLine
 10
9.4808588703
 20
7.1706877137
 30
0.0
 11
9.5087815861
 21
7.1706877137
 31
0.0
  0
LINE
  5
C5
330
1F
100
AcDbEntity
  8
0
  6
Continuous
 62
     7
370
    15
100
AcDbLine
 10
11.2390210806
 20
7.1706877137
 30
0.0
 11
11.2669437963
 21
7.1706877137
 31
0.0
  0
LINE
  5
C6
330
1F
100
AcDbEntity
  8
0
  6
Continuous
 62
     7
370
    15
100
AcDbLine
 10
11.3328225958
 20
3.7106877137
 30
0.0
 11
11.3564330881
 21
3.7106877137
 31
0.0
  0
LINE
  5
C7
330
1F
100
AcDbEntity
  8
0
  6
Continuous
 62
     7
370
    15
100
AcDbLine
 10
9.3913695786
 20
3.7106877137
 30
0.0
 11
9.4149800708
 21
3.7106877137
 31
0.0
  0
LINE
  5
C8
330
1F
100
AcDbEntity
  8
0
  6
Continuous
 62
     7
370
    15
100
AcDbLine
 10
9.3913695786
 20
1.5206877137
 30
0.0
 11
9.4149800708
 21
1.5206877137
 31
0.0
  0
LINE
  5
C9
330
1F
100
AcDbEntity
  8
0
  6
Continuous
 62
     7
370
    15
100
AcDbLine
 10
9.4808588703
 20
6.1706877137
 30
0.0
 11
9.5087815861
 21
6.1706877137
 31
0.0
  0
LINE
  5
CA
330
1F
100
AcDbEntity
  8
0
  6
Continuous
 62
     7
370
    15
100
AcDbLine
 10
11.2390210806
 20
6.1706877137
 30
0.0
 11
11.2669437963
 21
6.1706877137
 31
0.0
  0
LINE
  5
CB
330
1F
100
AcDbEntity
  8
0
  6
Continuous
 62
     7
370
    15
100
AcDbLine
 10
11.3328225958
 20
1.5206877137
 30
0.0
 11
11.3564330881
 21
1.5206877137
 31
0.0
  0
LINE
  5
CC
330
1F
100
AcDbEntity
  8
0
  6
Continuous
 62
     7
370
    15
100
AcDbLine
 10
10.9012516025
 20
7.7106877137
 30
0.0
 11
10.8907267825
 21
7.7106877137
 31
0.0
  0
LINE
  5
CD
330
1F
100
AcDbEntity
  8
0
  6
Continuous
 62
     7
370
    15
100
AcDbLine
 10
9.8465510641
 20
7.4106877137
 30
0.0
 11
9.8570758842
 21
7.4106877137
 31
0.0
  0
LINE
  5
CE
330
1F
100
AcDbEntity
  8
0
  6
Continuous
 62
     7
370
    15
100
AcDbLine
 10
9.8570758842
 20
7.7106877137
 30
0.0
 11
9.8465510641
 21
7.7106877137
 31
0.0
  0
LINE
  5
CF
330
1F
100
AcDbEntity
  8
0
  6
Continuous
 62
     7
370
    15
100
AcDbLine
 10
10.8907267825
 20
7.4106877137
 30
0.0
 11
10.9012516025
 21
7.4106877137
 31
0.0
  0
DIMENSION
  5
D0
330
1F
100
AcDbEntity
  8
TEXTF
100
AcDbDimension
  2
*D1
 10
11.4564330881
 20
0.3167938104
 30
0.0
 11
8.8349639826
 21
0.3167938104
 31
0.0
 70
   160
 71
     2
 42
-1.0
  3
SLDDIMSTYLE0
100
AcDbAlignedDimension
 13
9.2913695786
 23
1.6206877137
 33
0.0
 14
11.4564330881
 24
1.6206877137
 34
0.0
 50
0.0
100
AcDbRotatedDimension
  0
LINE
  5
DC
330
1F
100
AcDbEntity
  8
0
  6
Continuous
 62
     7
370
    15
100
AcDbLine
 10
3.9605555556
 20
4.4706877137
 30
0.0
 11
3.9405555556
 21
4.4906877137
 31
0.0
  0
LINE
  5
DD
330
1F
100
AcDbEntity
  8
0
  6
Continuous
 62
     7
370
    15
100
AcDbLine
 10
2.1205555556
 20
4.4906877137
 30
0.0
 11
2.1005555556
 21
4.4706877137
 31
0.0
  0
LINE
  5
DE
330
1F
100
AcDbEntity
  8
0
  6
Continuous
 62
     7
370
    15
100
AcDbLine
 10
2.1005555556
 20
0.6506877137
 30
0.0
 11
2.2205555556
 21
0.5306877137
 31
0.0
  0
LINE
  5
DF
330
1F
100
AcDbEntity
  8
0
  6
Continuous
 62
     7
370
    15
100
AcDbLine
 10
3.8405555556
 20
0.5306877137
 30
0.0
 11
3.9605555556
 21
0.6506877137
 31
0.0
  0
LINE
  5
E0
330
1F
100
AcDbEntity
  8
0
  6
Continuous
 62
     7
370
    15
100
AcDbLine
 10
2.1005555556
 20
1.5206877137
 30
0.0
 11
2.1005555556
 21
0.6506877137
 31
0.0
  0
LINE
  5
E1
330
1F
100
AcDbEntity
  8
0
  6
Continuous
 62
     7
370
    15
100
AcDbLine
 10
3.9605555556
 20
0.6506877137
 30
0.0
 11
3.9605555556
 21
1.5206877137
 31
0.0
  0
LINE
  5
E2
330
1F
100
AcDbEntity
  8
0
  6
Continuous
 62
     7
370
    15
100
AcDbLine
 10
2.1005555556
 20
4.4706877137
 30
0.0
 11
2.1005555556
 21
3.7106877137
 31
0.0
  0
LINE
  5
E3
330
1F
100
AcDbEntity
  8
0
  6
Continuous
 62
     7
370
    15
100
AcDbLine
 10
3.9605555556
 20
3.7106877137
 30
0.0
 11
3.9605555556
 21
4.4706877137
 31
0.0
  0
LINE
  5
E4
330
1F
100
AcDbEntity
  8
0
  6
Continuous
 62
     7
370
    15
100
AcDbLine
 10
3.8705555556
 20
4.4906877137
 30
0.0
 11
3.8705555556
 21
6.1706877137
 31
0.0
  0
LINE
  5
E5
330
1F
100
AcDbEntity
  8
0
  6
Continuous
 62
     7
370
    15
100
AcDbLine
 10
2.1905555556
 20
6.1706877137
 30
0.0
 11
2.1905555556
 21
4.4906877137
 31
0.0
  0
LINE
  5
E6
330
1F
100
AcDbEntity
  8
0
  6
Continuous
 62
     7
370
    15
100
AcDbLine
 10
3.5305555556
 20
7.1706877137
 30
0.0
 11
3.5305555556
 21
7.4106877137
 31
0.0
  0
LINE
  5
E7
330
1F
100
AcDbEntity
  8
0
  6
Continuous
 62
     7
370
    15
100
AcDbLine
 10
2.5305555556
 20
7.4106877137
 30
0.0
 11
2.5305555556
 21
7.1706877137
 31
0.0
  0
SPLINE
  5
E8
330
1F
100
AcDbEntity
  8
0
  6
Continuous
 62
     7
370
    15
100
AcDbSpline
210
0.0
220
0.0
230
1.0
 70
     8
 71
     3
 72
    22
 73
    18
 74
     0
 42
0.00000001
 43
0.00000001
 40
0.0
 40
0.0
 40
0.0
 40
0.0
 40
0.250000000000001
 40
0.250000000000001
 40
0.500000000000002
 40
0.500000000000002
 40
0.6250000000000034
 40
0.6250000000000034
 40
0.7500000000000048
 40
0.7500000000000048
 40
0.8125000000000036
 40
0.8125000000000036
 40
0.8750000000000023
 40
0.8750000000000023
 40
0.9375000000000012
 40
0.9375000000000012
 40
1.0
 40
1.0
 40
1.0
 40
1.0
 10
2.816455902679643
 20
1.520687713676351
 30
0.0
 10
2.837244826495203
 20
1.520687713676352
 30
0.0
 10
2.85799043883951
 20
1.521439955014481
 30
0.0
 10
2.899323145249652
 20
1.525697611352702
 30
0.0
 10
2.920040804132131
 20
1.529194382638011
 30
0.0
 10
2.950191229140156
 20
1.538089735142481
 30
0.0
 10
2.960095421456435
 20
1.541665947744398
 30
0.0
 10
2.979466291880637
 20
1.550650260404289
 30
0.0
 10
2.988821796835064
 20
1.555994206613117
 30
0.0
 10
3.001844784548849
 20
1.565970042112179
 30
0.0
 10
3.006039548282107
 20
1.569655451684049
 30
0.0
 10
3.013743915836273
 20
1.577729341929158
 30
0.0
 10
3.017282713275002
 20
1.58212835243798
 30
0.0
 10
3.02346715067882
 20
1.591958267211392
 30
0.0
 10
3.026000839637589
 20
1.597216221756269
 30
0.0
 10
3.029579793147014
 20
1.608603202045384
 30
0.0
 10
3.030555555555866
 20
1.614589325731561
 30
0.0
 10
3.030555555555873
 20
1.620687713676296
 30
0.0
  0
LINE
  5
E9
330
1F
100
AcDbEntity
  8
0
  6
Continuous
 62
     7
370
    15
100
AcDbLine
 10
2.8164559027
 20
1.5206877137
 30
0.0
 11
2.3071552084
 21
1.5206877137
 31
0.0
  0
SPLINE
  5
EA
330
1F
100
AcDbEntity
  8
0
  6
Continuous
 62
     7
370
    15
100
AcDbSpline
210
0.0
220
0.0
230
1.0
 70
     8
 71
     3
 72
    22
 73
    18
 74
     0
 42
0.00000001
 43
0.00000001
 40
0.0
 40
0.0
 40
0.0
 40
0.0
 40
0.0624999999999991
 40
0.0624999999999991
 40
0.1249999999999983
 40
0.1249999999999983
 40
0.1874999999999974
 40
0.1874999999999974
 40
0.2499999999999966
 40
0.2499999999999966
 40
0.3749999999999974
 40
0.3749999999999974
 40
0.4999999999999982
 40
0.4999999999999982
 40
0.7499999999999991
 40
0.7499999999999991
 40
1.0
 40
1.0
 40
1.0
 40
1.0
 10
2.093055555555556
 20
1.620687713676352
 30
0.0
 10
2.093055555555556
 20
1.614554815881995
 30
0.0
 10
2.094023644050805
 20
1.608610453521499
 30
0.0
 10
2.09765014550122
 20
1.597106674064229
 30
0.0
 10
2.100223683851838
 20
1.591803207833682
 30
0.0
 10
2.106462067812133
 20
1.581945220469865
 30
0.0
 10
2.110027705535827
 20
1.577538890444633
 30
0.0
 10
2.11778319339626
 20
1.569457009323221
 30
0.0
 10
2.122008894121854
 20
1.565765282719984
 30
0.0
 10
2.135117009747227
 20
1.555782905345768
 30
0.0
 10
2.144451746746707
 20
1.550485570811548
 30
0.0
 10
2.163843806693944
 20
1.541536844742495
 30
0.0
 10
2.173877418354783
 20
1.537935290045842
 30
0.0
 10
2.203999328750437
 20
1.529108054857105
 30
0.0
 10
2.22441180231088
 20
1.525682773264442
 30
0.0
 10
2.265588631698713
 20
1.521445341913128
 30
0.0
 10
2.286402391412551
 20
1.520687713676351
 30
0.0
 10
2.307155208431473
 20
1.520687713676351
 30
0.0
  0
LINE
  5
EB
330
1F
100
AcDbEntity
  8
0
  6
Continuous
 62
     7
370
    15
100
AcDbLine
 10
2.0930555556
 20
1.6206877137
 30
0.0
 11
2.0930555556
 21
3.6106877137
 31
0.0
  0
SPLINE
  5
EC
330
1F
100
AcDbEntity
  8
0
  6
Continuous
 62
     7
370
    15
100
AcDbSpline
210
0.0
220
0.0
230
1.0
 70
     8
 71
     3
 72
    22
 73
    18
 74
     0
 42
0.00000001
 43
0.00000001
 40
0.0
 40
0.0
 40
0.0
 40
0.0
 40
0.2500000000000006
 40
0.2500000000000006
 40
0.5000000000000011
 40
0.5000000000000011
 40
0.6250000000000011
 40
0.6250000000000011
 40
0.7500000000000012
 40
0.7500000000000012
 40
0.8125000000000009
 40
0.8125000000000009
 40
0.8750000000000006
 40
0.8750000000000006
 40
0.9375000000000003
 40
0.9375000000000003
 40
1.0
 40
1.0
 40
1.0
 40
1.0
 10
2.307155208431473
 20
3.710687713676351
 30
0.0
 10
2.286366284615912
 20
3.710687713676351
 30
0.0
 10
2.265620672271606
 20
3.709935472338221
 30
0.0
 10
2.224287965861465
 20
3.705677816000002
 30
0.0
 10
2.203570306978985
 20
3.702181044714692
 30
0.0
 10
2.17341988197096
 20
3.693285692210223
 30
0.0
 10
2.163515689654681
 20
3.689709479608304
 30
0.0
 10
2.144144819230479
 20
3.680725166948415
 30
0.0
 10
2.134789314276052
 20
3.675381220739586
 30
0.0
 10
2.121766326562267
 20
3.665405385240524
 30
0.0
 10
2.117571562829009
 20
3.661719975668654
 30
0.0
 10
2.109867195274843
 20
3.653646085423545
 30
0.0
 10
2.106328397836114
 20
3.649247074914722
 30
0.0
 10
2.100143960432295
 20
3.639417160141312
 30
0.0
 10
2.097610271473526
 20
3.634159205596435
 30
0.0
 10
2.094031317964101
 20
3.62277222530732
 30
0.0
 10
2.093055555555249
 20
3.616786101621141
 30
0.0
 10
2.093055555555243
 20
3.610687713676407
 30
0.0
  0
LINE
  5
ED
330
1F
100
AcDbEntity
  8
0
  6
Continuous
 62
     7
370
    15
100
AcDbLine
 10
2.8164559027
 20
3.7106877137
 30
0.0
 11
2.3071552084
 21
3.7106877137
 31
0.0
  0
SPLINE
  5
EE
330
1F
100
AcDbEntity
  8
0
  6
Continuous
 62
     7
370
    15
100
AcDbSpline
210
0.0
220
0.0
230
1.0
 70
     8
 71
     3
 72
    22
 73
    18
 74
     0
 42
0.00000001
 43
0.00000001
 40
0.0
 40
0.0
 40
0.0
 40
0.0
 40
0.0625
 40
0.0625
 40
0.1249999999999999
 40
0.1249999999999999
 40
0.1874999999999999
 40
0.1874999999999999
 40
0.2499999999999999
 40
0.2499999999999999
 40
0.3749999999999996
 40
0.3749999999999996
 40
0.4999999999999992
 40
0.4999999999999992
 40
0.7499999999999997
 40
0.7499999999999997
 40
1.0
 40
1.0
 40
1.0
 40
1.0
 10
3.030555555555559
 20
3.61068771367635
 30
0.0
 10
3.030555555555559
 20
3.616820611470708
 30
0.0
 10
3.02958746706031
 20
3.622764973831204
 30
0.0
 10
3.025960965609896
 20
3.634268753288474
 30
0.0
 10
3.023387427259277
 20
3.63957221951902
 30
0.0
 10
3.017149043298982
 20
3.649430206882839
 30
0.0
 10
3.013583405575289
 20
3.653836536908069
 30
0.0
 10
3.005827917714856
 20
3.661918418029481
 30
0.0
 10
3.001602216989262
 20
3.665610144632718
 30
0.0
 10
2.988494101363889
 20
3.675592522006935
 30
0.0
 10
2.979159364364409
 20
3.680889856541155
 30
0.0
 10
2.959767304417172
 20
3.689838582610208
 30
0.0
 10
2.949733692756332
 20
3.693440137306861
 30
0.0
 10
2.91961178236068
 20
3.702267372495598
 30
0.0
 10
2.899199308800237
 20
3.70569265408826
 30
0.0
 10
2.858022479412404
 20
3.709930085439574
 30
0.0
 10
2.837208719698566
 20
3.710687713676351
 30
0.0
 10
2.816455902679645
 20
3.710687713676351
 30
0.0
  0
LINE
  5
EF
330
1F
100
AcDbEntity
  8
0
  6
Continuous
 62
     7
370
    15
100
AcDbLine
 10
3.0305555556
 20
1.6206877137
 30
0.0
 11
3.0305555556
 21
3.6106877137
 31
0.0
  0
SPLINE
  5
F0
330
1F
100
AcDbEntity
  8
0
  6
Continuous
 62
     7
370
    15
100
AcDbSpline
210
0.0
220
0.0
230
1.0
 70
     8
 71
     3
 72
    22
 73
    18
 74
     0
 42
0.00000001
 43
0.00000001
 40
0.0
 40
0.0
 40
0.0
 40
0.0
 40
0.2499999999999999
 40
0.2499999999999999
 40
0.4999999999999998
 40
0.4999999999999998
 40
0.6249999999999993
 40
0.6249999999999993
 40
0.7499999999999988
 40
0.7499999999999988
 40
0.8124999999999991
 40
0.8124999999999991
 40
0.8749999999999994
 40
0.8749999999999994
 40
0.9374999999999997
 40
0.9374999999999997
 40
1.0
 40
1.0
 40
1.0
 40
1.0
 10
2.808986912479309
 20
6.170687713676351
 30
0.0
 10
2.830326925232616
 20
6.170687713676351
 30
0.0
 10
2.851663536248357
 20
6.171324474703535
 30
0.0
 10
2.894322502117709
 20
6.175266564883362
 30
0.0
 10
2.915630992513084
 20
6.178534291293137
 30
0.0
 10
2.946935530714964
 20
6.187206631185954
 30
0.0
 10
2.957187366330533
 20
6.190716711713505
 30
0.0
 10
2.977069281740523
 20
6.199500217304442
 30
0.0
 10
2.986773280196734
 20
6.204783189636711
 30
0.0
 10
3.000403642718804
 20
6.214826105057185
 30
0.0
 10
3.004738063314157
 20
6.218493747813941
 30
0.0
 10
3.012842240567289
 20
6.226693463242383
 30
0.0
 10
3.016589166064998
 20
6.231215518316828
 30
0.0
 10
3.022998662299047
 20
6.241079283716578
 30
0.0
 10
3.025733480501606
 20
6.246560492385193
 30
0.0
 10
3.029505547999757
 20
6.258192724953553
 30
0.0
 10
3.030555555555568
 20
6.264398477751555
 30
0.0
 10
3.030555555555568
 20
6.27068771367635
 30
0.0
  0
LINE
  5
F1
330
1F
100
AcDbEntity
  8
0
  6
Continuous
 62
     7
370
    15
100
AcDbLine
 10
2.3921241986
 20
6.1706877137
 30
0.0
 11
2.8089869125
 21
6.1706877137
 31
0.0
  0
SPLINE
  5
F2
330
1F
100
AcDbEntity
  8
0
  6
Continuous
 62
     7
370
    15
100
AcDbSpline
210
0.0
220
0.0
230
1.0
 70
     8
 71
     3
 72
    22
 73
    18
 74
     0
 42
0.00000001
 43
0.00000001
 40
0.0
 40
0.0
 40
0.0
 40
0.0
 40
0.0625
 40
0.0625
 40
0.125
 40
0.125
 40
0.1875000000000001
 40
0.1875000000000001
 40
0.2500000000000001
 40
0.2500000000000001
 40
0.3750000000000001
 40
0.3750000000000001
 40
0.5000000000000001
 40
0.5000000000000001
 40
0.7499999999999999
 40
0.7499999999999999
 40
1.0
 40
1.0
 40
1.0
 40
1.0
 10
2.170555555555557
 20
6.270687713676351
 30
0.0
 10
2.170555555555557
 20
6.264373114613377
 30
0.0
 10
2.171586599955246
 20
6.258241757202854
 30
0.0
 10
2.175414862596639
 20
6.246455168269607
 30
0.0
 10
2.178138769233738
 20
6.241015225069066
 30
0.0
 10
2.18467792337929
 20
6.230999699234357
 30
0.0
 10
2.188409936095992
 20
6.226533727941013
 30
0.0
 10
2.196521833312629
 20
6.218360834770606
 30
0.0
 10
2.200932892278727
 20
6.214644671478516
 30
0.0
 10
2.214557052973233
 20
6.204653508138549
 30
0.0
 10
2.22425024537008
 20
6.199385293804429
 30
0.0
 10
2.244377807253757
 20
6.190539728547193
 30
0.0
 10
2.254719349685922
 20
6.187036060408236
 30
0.0
 10
2.28580846736366
 20
6.178484582371571
 30
0.0
 10
2.306866795666778
 20
6.175260349026034
 30
0.0
 10
2.349321932293646
 20
6.171335077060077
 30
0.0
 10
2.370748285455592
 20
6.170687713676351
 30
0.0
 10
2.392124198631805
 20
6.170687713676351
 30
0.0
  0
LINE
  5
F3
330
1F
100
AcDbEntity
  8
0
  6
Continuous
 62
     7
370
    15
100
AcDbLine
 10
2.1705555556
 20
7.0706877137
 30
0.0
 11
2.1705555556
 21
6.2706877137
 31
0.0
  0
SPLINE
  5
F4
330
1F
100
AcDbEntity
  8
0
  6
Continuous
 62
     7
370
    15
100
AcDbSpline
210
0.0
220
0.0
230
1.0
 70
     8
 71
     3
 72
    22
 73
    18
 74
     0
 42
0.00000001
 43
0.00000001
 40
0.0
 40
0.0
 40
0.0
 40
0.0
 40
0.2499999999999998
 40
0.2499999999999998
 40
0.4999999999999996
 40
0.4999999999999996
 40
0.6249999999999997
 40
0.6249999999999997
 40
0.7499999999999998
 40
0.7499999999999998
 40
0.8124999999999998
 40
0.8124999999999998
 40
0.8749999999999999
 40
0.8749999999999999
 40
0.9374999999999999
 40
0.9374999999999999
 40
1.0
 40
1.0
 40
1.0
 40
1.0
 10
2.392124198631808
 20
7.170687713676351
 30
0.0
 10
2.3707841858785
 20
7.170687713676352
 30
0.0
 10
2.349447574862759
 20
7.170050952649167
 30
0.0
 10
2.306788608993407
 20
7.16610886246934
 30
0.0
 10
2.285480118598032
 20
7.162841136059566
 30
0.0
 10
2.254175580396153
 20
7.154168796166748
 30
0.0
 10
2.243923744780584
 20
7.150658715639198
 30
0.0
 10
2.224041829370594
 20
7.14187521004826
 30
0.0
 10
2.214337830914383
 20
7.13659223771599
 30
0.0
 10
2.200707468392312
 20
7.126549322295517
 30
0.0
 10
2.19637304779696
 20
7.122881679538763
 30
0.0
 10
2.188268870543828
 20
7.114681964110319
 30
0.0
 10
2.184521945046118
 20
7.110159909035874
 30
0.0
 10
2.17811244881207
 20
7.100296143636123
 30
0.0
 10
2.175377630609511
 20
7.094814934967509
 30
0.0
 10
2.171605563111359
 20
7.083182702399148
 30
0.0
 10
2.170555555555548
 20
7.076976949601147
 30
0.0
 10
2.170555555555548
 20
7.07068771367635
 30
0.0
  0
LINE
  5
F5
330
1F
100
AcDbEntity
  8
0
  6
Continuous
 62
     7
370
    15
100
AcDbLine
 10
2.3921241986
 20
7.1706877137
 30
0.0
 11
2.8089869125
 21
7.1706877137
 31
0.0
  0
SPLINE
  5
F6
330
1F
100
AcDbEntity
  8
0
  6
Continuous
 62
     7
370
    15
100
AcDbSpline
210
0.0
220
0.0
230
1.0
 70
     8
 71
     3
 72
    22
 73
    18
 74
     0
 42
0.00000001
 43
0.00000001
 40
0.0
 40
0.0
 40
0.0
 40
0.0
 40
0.0625000000000011
 40
0.0625000000000011
 40
0.1250000000000021
 40
0.1250000000000021
 40
0.1875000000000032
 40
0.1875000000000032
 40
0.2500000000000043
 40
0.2500000000000043
 40
0.3750000000000034
 40
0.3750000000000034
 40
0.5000000000000027
 40
0.5000000000000027
 40
0.7500000000000013
 40
0.7500000000000013
 40
1.0
 40
1.0
 40
1.0
 40
1.0
 10
3.03055555555556
 20
7.07068771367635
 30
0.0
 10
3.03055555555556
 20
7.077002312739325
 30
0.0
 10
3.029524511155871
 20
7.083133670149847
 30
0.0
 10
3.025696248514478
 20
7.094920259083096
 30
0.0
 10
3.022972341877379
 20
7.100360202283637
 30
0.0
 10
3.016433187731827
 20
7.110375728118346
 30
0.0
 10
3.012701175015125
 20
7.114841699411689
 30
0.0
 10
3.004589277798488
 20
7.123014592582096
 30
0.0
 10
3.00017821883239
 20
7.126730755874185
 30
0.0
 10
2.986554058137884
 20
7.136721919214153
 30
0.0
 10
2.976860865741036
 20
7.141990133548274
 30
0.0
 10
2.95673330385736
 20
7.150835698805509
 30
0.0
 10
2.946391761425195
 20
7.154339366944467
 30
0.0
 10
2.915302643747456
 20
7.162890844981131
 30
0.0
 10
2.894244315444338
 20
7.166115078326667
 30
0.0
 10
2.85178917881747
 20
7.170040350292625
 30
0.0
 10
2.830362825655524
 20
7.170687713676352
 30
0.0
 10
2.808986912479311
 20
7.170687713676351
 30
0.0
  0
LINE
  5
F7
330
1F
100
AcDbEntity
  8
0
  6
Continuous
 62
     7
370
    15
100
AcDbLine
 10
3.0305555556
 20
7.0706877137
 30
0.0
 11
3.0305555556
 21
6.2706877137
 31
0.0
  0
LINE
  5
F8
330
1F
100
AcDbEntity
  8
0
  6
Continuous
 62
     7
370
    15
100
AcDbLine
 10
3.9405555556
 20
4.4906877137
 30
0.0
 11
2.1205555556
 21
4.4906877137
 31
0.0
  0
LINE
  5
F9
330
1F
100
AcDbEntity
  8
0
  6
Continuous
 62
     7
370
    15
100
AcDbLine
 10
3.9605555556
 20
4.4706877137
 30
0.0
 11
2.1005555556
 21
4.4706877137
 31
0.0
  0
LINE
  5
FA
330
1F
100
AcDbEntity
  8
0
  6
Continuous
 62
     7
370
    15
100
AcDbLine
 10
3.9605555556
 20
0.6506877137
 30
0.0
 11
2.1005555556
 21
0.6506877137
 31
0.0
  0
LINE
  5
FB
330
1F
100
AcDbEntity
  8
0
  6
Continuous
 62
     7
370
    15
100
AcDbLine
 10
3.8405555556
 20
0.5306877137
 30
0.0
 11
2.2205555556
 21
0.5306877137
 31
0.0
  0
SPLINE
  5
FC
330
1F
100
AcDbEntity
  8
0
  6
Continuous
 62
     7
370
    15
100
AcDbSpline
210
0.0
220
0.0
230
1.0
 70
     8
 71
     3
 72
    20
 73
    16
 74
     0
 42
0.00000001
 43
0.00000001
 40
0.0
 40
0.0
 40
0.0
 40
0.0
 40
0.2499999999999998
 40
0.2499999999999998
 40
0.4999999999999996
 40
0.4999999999999996
 40
0.6249999999999997
 40
0.6249999999999997
 40
0.7499999999999998
 40
0.7499999999999998
 40
0.8749999999999999
 40
0.8749999999999999
 40
0.9374999999999999
 40
0.9374999999999999
 40
1.0
 40
1.0
 40
1.0
 40
1.0
 10
3.244655208431473
 20
3.710687713676351
 30
0.0
 10
3.2238978166167
 20
3.710687713676351
 30
0.0
 10
3.203068781312334
 20
3.709929756688749
 30
0.0
 10
3.161856150758427
 20
3.705685209931431
 30
0.0
 10
3.141441325678185
 20
3.702253335988312
 30
0.0
 10
3.111356169729071
 20
3.693432426022547
 30
0.0
 10
3.101357792736597
 20
3.689845416035276
 30
0.0
 10
3.081927133697258
 20
3.680878118933778
 30
0.0
 10
3.072577270515348
 20
3.675569236816235
 30
0.0
 10
3.05508197128637
 20
3.662231841256069
 30
0.0
 10
3.04698249666172
 20
3.654228659056693
 30
0.0
 10
3.037701073826406
 20
3.639523579186867
 30
0.0
 10
3.035144089570165
 20
3.634252490185014
 30
0.0
 10
3.031524161713921
 20
3.622763664248089
 30
0.0
 10
3.030555555555558
 20
3.61679336178593
 30
0.0
 10
3.030555555555559
 20
3.61068771367635
 30
0.0
  0
LINE
  5
FD
330
1F
100
AcDbEntity
  8
0
  6
Continuous
 62
     7
370
    15
100
AcDbLine
 10
2.8164559027
 20
3.7106877137
 30
0.0
 11
3.2446552084
 21
3.7106877137
 31
0.0
  0
SPLINE
  5
FE
330
1F
100
AcDbEntity
  8
0
  6
Continuous
 62
     7
370
    15
100
AcDbSpline
210
0.0
220
0.0
230
1.0
 70
     8
 71
     3
 72
    20
 73
    16
 74
     0
 42
0.00000001
 43
0.00000001
 40
0.0
 40
0.0
 40
0.0
 40
0.0
 40
0.0624999999999999
 40
0.0624999999999999
 40
0.1249999999999998
 40
0.1249999999999998
 40
0.2500000000000001
 40
0.2500000000000001
 40
0.3750000000000003
 40
0.3750000000000003
 40
0.5000000000000006
 40
0.5000000000000006
 40
0.7500000000000002
 40
0.7500000000000002
 40
1.0
 40
1.0
 40
1.0
 40
1.0
 10
3.030555555555559
 20
1.620687713676352
 30
0.0
 10
3.030555555555558
 20
1.614549354607388
 30
0.0
 10
3.031532021997408
 20
1.608572721149941
 30
0.0
 10
3.035162788723198
 20
1.597077789133427
 30
0.0
 10
3.037722705850312
 20
1.59180737479074
 30
0.0
 10
3.047053879856389
 20
1.577054262302288
 30
0.0
 10
3.055103261831547
 20
1.569119396751931
 30
0.0
 10
3.07266657116292
 20
1.555746121897808
 30
0.0
 10
3.082008262545678
 20
1.550457093425611
 30
0.0
 10
3.101354865717525
 20
1.541534147209993
 30
0.0
 10
3.111421488633064
 20
1.53791872858118
 30
0.0
 10
3.141658471782109
 20
1.529068756181095
 30
0.0
 10
3.162076794330437
 20
1.525659892719266
 30
0.0
 10
3.203185067370667
 20
1.521441357076546
 30
0.0
 10
3.223886331818035
 20
1.520687713676351
 30
0.0
 10
3.244655208431473
 20
1.520687713676351
 30
0.0
  0
LINE
  5
FF
330
1F
100
AcDbEntity
  8
0
  6
Continuous
 62
     7
370
    15
100
AcDbLine
 10
2.8164559027
 20
1.5206877137
 30
0.0
 11
3.2446552084
 21
1.5206877137
 31
0.0
  0
SPLINE
  5
100
330
1F
100
AcDbEntity
  8
0
  6
Continuous
 62
     7
370
    15
100
AcDbSpline
210
0.0
220
0.0
230
1.0
 70
     8
 71
     3
 72
    20
 73
    16
 74
     0
 42
0.00000001
 43
0.00000001
 40
0.0
 40
0.0
 40
0.0
 40
0.0
 40
0.0625
 40
0.0625
 40
0.125
 40
0.125
 40
0.25
 40
0.25
 40
0.375
 40
0.375
 40
0.5
 40
0.5
 40
0.75
 40
0.75
 40
1.0
 40
1.0
 40
1.0
 40
1.0
 10
3.968055555555558
 20
3.61068771367635
 30
0.0
 10
3.968055555555558
 20
3.616826072745305
 30
0.0
 10
3.967079089113711
 20
3.622802706202742
 30
0.0
 10
3.963448322387933
 20
3.634297638219241
 30
0.0
 10
3.960888405260826
 20
3.639568052561921
 30
0.0
 10
3.951557231254775
 20
3.654321165050357
 30
0.0
 10
3.943507849279635
 20
3.662256030600709
 30
0.0
 10
3.925944539948298
 20
3.675629305454828
 30
0.0
 10
3.916602848565558
 20
3.680918333927026
 30
0.0
 10
3.897256245393748
 20
3.689841280142647
 30
0.0
 10
3.887189622478228
 20
3.693456698771464
 30
0.0
 10
3.856952639329234
 20
3.702306671171558
 30
0.0
 10
3.83653431678094
 20
3.705715534633396
 30
0.0
 10
3.795426043740778
 20
3.709934070276135
 30
0.0
 10
3.774724779293447
 20
3.710687713676341
 30
0.0
 10
3.753955902680041
 20
3.710687713676351
 30
0.0
  0
LINE
  5
101
330
1F
100
AcDbEntity
  8
0
  6
Continuous
 62
     7
370
    15
100
AcDbLine
 10
3.9680555556
 20
1.6206877137
 30
0.0
 11
3.9680555556
 21
3.6106877137
 31
0.0
  0
SPLINE
  5
102
330
1F
100
AcDbEntity
  8
0
  6
Continuous
 62
     7
370
    15
100
AcDbSpline
210
0.0
220
0.0
230
1.0
 70
     8
 71
     3
 72
    20
 73
    16
 74
     0
 42
0.00000001
 43
0.00000001
 40
0.0
 40
0.0
 40
0.0
 40
0.0
 40
0.2499999999999994
 40
0.2499999999999994
 40
0.4999999999999989
 40
0.4999999999999989
 40
0.6249999999999992
 40
0.6249999999999992
 40
0.7499999999999997
 40
0.7499999999999997
 40
0.875
 40
0.875
 40
0.9375
 40
0.9375
 40
1.0
 40
1.0
 40
1.0
 40
1.0
 10
3.753955902679644
 20
1.520687713676351
 30
0.0
 10
3.774713294494417
 20
1.520687713676351
 30
0.0
 10
3.795542329798784
 20
1.521445670663954
 30
0.0
 10
3.836754960352693
 20
1.525690217421271
 30
0.0
 10
3.857169785432935
 20
1.529122091364391
 30
0.0
 10
3.88725494138205
 20
1.537943001330158
 30
0.0
 10
3.897253318374525
 20
1.541530011317429
 30
0.0
 10
3.916683977413863
 20
1.550497308418928
 30
0.0
 10
3.926033840595774
 20
1.55580619053647
 30
0.0
 10
3.943529139824752
 20
1.569143586096639
 30
0.0
 10
3.951628614449402
 20
1.577146768296016
 30
0.0
 10
3.960910037284715
 20
1.591851848165844
 30
0.0
 10
3.963467021540955
 20
1.597122937167698
 30
0.0
 10
3.967086949397198
 20
1.608611763104622
 30
0.0
 10
3.968055555555559
 20
1.614582065566783
 30
0.0
 10
3.968055555555558
 20
1.620687713676362
 30
0.0
  0
LINE
  5
103
330
1F
100
AcDbEntity
  8
0
  6
Continuous
 62
     7
370
    15
100
AcDbLine
 10
3.7539559027
 20
3.7106877137
 30
0.0
 11
3.2446552084
 21
3.7106877137
 31
0.0
  0
LINE
  5
104
330
1F
100
AcDbEntity
  8
0
  6
Continuous
 62
     7
370
    15
100
AcDbLine
 10
3.7539559027
 20
1.5206877137
 30
0.0
 11
3.2446552084
 21
1.5206877137
 31
0.0
  0
SPLINE
  5
105
330
1F
100
AcDbEntity
  8
0
  6
Continuous
 62
     7
370
    15
100
AcDbSpline
210
0.0
220
0.0
230
1.0
 70
     8
 71
     3
 72
    22
 73
    18
 74
     0
 42
0.00000001
 43
0.00000001
 40
0.0
 40
0.0
 40
0.0
 40
0.0
 40
0.2499999999999984
 40
0.2499999999999984
 40
0.4999999999999966
 40
0.4999999999999966
 40
0.6249999999999959
 40
0.6249999999999959
 40
0.7499999999999952
 40
0.7499999999999952
 40
0.8124999999999963
 40
0.8124999999999963
 40
0.8749999999999976
 40
0.8749999999999976
 40
0.9374999999999987
 40
0.9374999999999987
 40
1.0
 40
1.0
 40
1.0
 40
1.0
 10
3.252124198631809
 20
7.170687713676351
 30
0.0
 10
3.230830343456147
 20
7.170687713676352
 30
0.0
 10
3.209581600836211
 20
7.170050254260885
 30
0.0
 10
3.16726876733176
 20
7.166166128626552
 30
0.0
 10
3.146200485851506
 20
7.162978677290682
 30
0.0
 10
3.114867520710934
 20
7.154389958244164
 30
0.0
 10
3.104446509142808
 20
7.15086200932985
 30
0.0
 10
3.084292239434255
 20
7.142012449886832
 30
0.0
 10
3.074443108182112
 20
7.136650183620784
 30
0.0
 10
3.060862573222484
 20
7.126673192086414
 30
0.0
 10
3.056522300592706
 20
7.123017942149604
 30
0.0
 10
3.04836124523274
 20
7.114789746595774
 30
0.0
 10
3.044593306053729
 20
7.110261853439567
 30
0.0
 10
3.038101099403949
 20
7.10028648036847
 30
0.0
 10
3.035366250206089
 20
7.094782928794993
 30
0.0
 10
3.031610882576191
 20
7.083196012972971
 30
0.0
 10
3.030555555555559
 20
7.07688989424123
 30
0.0
 10
3.030555555555559
 20
7.07068771367635
 30
0.0
  0
LINE
  5
106
330
1F
100
AcDbEntity
  8
0
  6
Continuous
 62
     7
370
    15
100
AcDbLine
 10
2.8089869125
 20
7.1706877137
 30
0.0
 11
3.2521241986
 21
7.1706877137
 31
0.0
  0
SPLINE
  5
107
330
1F
100
AcDbEntity
  8
0
  6
Continuous
 62
     7
370
    15
100
AcDbSpline
210
0.0
220
0.0
230
1.0
 70
     8
 71
     3
 72
    20
 73
    16
 74
     0
 42
0.00000001
 43
0.00000001
 40
0.0
 40
0.0
 40
0.0
 40
0.0
 40
0.0625
 40
0.0625
 40
0.1249999999999999
 40
0.1249999999999999
 40
0.2499999999999999
 40
0.2499999999999999
 40
0.3749999999999998
 40
0.3749999999999998
 40
0.4999999999999998
 40
0.4999999999999998
 40
0.7499999999999997
 40
0.7499999999999997
 40
1.0
 40
1.0
 40
1.0
 40
1.0
 10
3.030555555555559
 20
6.270687713676351
 30
0.0
 10
3.030555555555559
 20
6.264497004741046
 30
0.0
 10
3.031593087813416
 20
6.258240703123399
 30
0.0
 10
3.035371652624556
 20
6.24656946639096
 30
0.0
 10
3.038119011337421
 20
6.241061289111054
 30
0.0
 10
3.047805158057458
 20
6.226178786916499
 30
0.0
 10
3.05628527265654
 20
6.21807637500415
 30
0.0
 10
3.074331286684186
 20
6.204796087386614
 30
0.0
 10
3.084152191291169
 20
6.199439153986042
 30
0.0
 10
3.104168889391202
 20
6.190620938727411
 30
0.0
 10
3.114393317308483
 20
6.187139832400725
 30
0.0
 10
3.145496508300116
 20
6.178542850749167
 30
0.0
 10
3.16687518610622
 20
6.175256548962455
 30
0.0
 10
3.20945566991253
 20
6.171325746511354
 30
0.0
 10
3.230781404136147
 20
6.170687713676351
 30
0.0
 10
3.252124198631809
 20
6.170687713676351
 30
0.0
  0
LINE
  5
108
330
1F
100
AcDbEntity
  8
0
  6
Continuous
 62
     7
370
    15
100
AcDbLine
 10
2.8089869125
 20
6.1706877137
 30
0.0
 11
3.2521241986
 21
6.1706877137
 31
0.0
  0
SPLINE
  5
109
330
1F
100
AcDbEntity
  8
0
  6
Continuous
 62
     7
370
    15
100
AcDbSpline
210
0.0
220
0.0
230
1.0
 70
     8
 71
     3
 72
    20
 73
    16
 74
     0
 42
0.00000001
 43
0.00000001
 40
0.0
 40
0.0
 40
0.0
 40
0.0
 40
0.0624999999999999
 40
0.0624999999999999
 40
0.1249999999999997
 40
0.1249999999999997
 40
0.2499999999999999
 40
0.2499999999999999
 40
0.3750000000000001
 40
0.3750000000000001
 40
0.5000000000000002
 40
0.5000000000000002
 40
0.7499999999999999
 40
0.7499999999999999
 40
1.0
 40
1.0
 40
1.0
 40
1.0
 10
3.890555555555558
 20
7.07068771367635
 30
0.0
 10
3.890555555555558
 20
7.076878422611657
 30
0.0
 10
3.889518023297701
 20
7.083134724229302
 30
0.0
 10
3.885739458486561
 20
7.094805960961743
 30
0.0
 10
3.882992099773695
 20
7.100314138241649
 30
0.0
 10
3.873305953053658
 20
7.115196640436202
 30
0.0
 10
3.864825838454577
 20
7.123299052348552
 30
0.0
 10
3.846779824426931
 20
7.136579339966088
 30
0.0
 10
3.836958919819948
 20
7.141936273366659
 30
0.0
 10
3.816942221719915
 20
7.150754488625289
 30
0.0
 10
3.806717793802634
 20
7.154235594951977
 30
0.0
 10
3.775614602811001
 20
7.162832576603534
 30
0.0
 10
3.754235925004898
 20
7.166118878390247
 30
0.0
 10
3.711655441198588
 20
7.170049680841348
 30
0.0
 10
3.69032970697497
 20
7.170687713676352
 30
0.0
 10
3.668986912479308
 20
7.170687713676351
 30
0.0
  0
LINE
  5
10A
330
1F
100
AcDbEntity
  8
0
  6
Continuous
 62
     7
370
    15
100
AcDbLine
 10
3.8905555556
 20
7.0706877137
 30
0.0
 11
3.8905555556
 21
6.2706877137
 31
0.0
  0
SPLINE
  5
10B
330
1F
100
AcDbEntity
  8
0
  6
Continuous
 62
     7
370
    15
100
AcDbSpline
210
0.0
220
0.0
230
1.0
 70
     8
 71
     3
 72
    22
 73
    18
 74
     0
 42
0.00000001
 43
0.00000001
 40
0.0
 40
0.0
 40
0.0
 40
0.0
 40
0.2500000000000001
 40
0.2500000000000001
 40
0.5000000000000002
 40
0.5000000000000002
 40
0.625000000000001
 40
0.625000000000001
 40
0.7500000000000017
 40
0.7500000000000017
 40
0.8125000000000012
 40
0.8125000000000012
 40
0.8750000000000009
 40
0.8750000000000009
 40
0.9375000000000004
 40
0.9375000000000004
 40
1.0
 40
1.0
 40
1.0
 40
1.0
 10
3.668986912479308
 20
6.170687713676351
 30
0.0
 10
3.690280767654971
 20
6.170687713676351
 30
0.0
 10
3.711529510274905
 20
6.171325173091816
 30
0.0
 10
3.753842343779356
 20
6.175209298726151
 30
0.0
 10
3.774910625259611
 20
6.178396750062021
 30
0.0
 10
3.806243590400183
 20
6.186985469108537
 30
0.0
 10
3.816664601968308
 20
6.190513418022853
 30
0.0
 10
3.836818871676861
 20
6.199362977465869
 30
0.0
 10
3.846668002929004
 20
6.204725243731918
 30
0.0
 10
3.860248537888632
 20
6.214702235266288
 30
0.0
 10
3.864588810518411
 20
6.218357485203097
 30
0.0
 10
3.872749865878377
 20
6.226585680756928
 30
0.0
 10
3.876517805057387
 20
6.231113573913133
 30
0.0
 10
3.883010011707168
 20
6.241088946984234
 30
0.0
 10
3.885744860905028
 20
6.246592498557709
 30
0.0
 10
3.889500228534926
 20
6.258179414379731
 30
0.0
 10
3.890555555555557
 20
6.264485533111473
 30
0.0
 10
3.890555555555558
 20
6.270687713676351
 30
0.0
  0
LINE
  5
10C
330
1F
100
AcDbEntity
  8
0
  6
Continuous
 62
     7
370
    15
100
AcDbLine
 10
3.2521241986
 20
6.1706877137
 30
0.0
 11
3.6689869125
 21
6.1706877137
 31
0.0
  0
LINE
  5
10D
330
1F
100
AcDbEntity
  8
0
  6
Continuous
 62
     7
370
    15
100
AcDbLine
 10
3.2521241986
 20
7.1706877137
 30
0.0
 11
3.6689869125
 21
7.1706877137
 31
0.0
  0
SPLINE
  5
10E
330
1F
100
AcDbEntity
  8
0
  6
Continuous
 62
     7
370
    15
100
AcDbSpline
210
0.0
220
0.0
230
1.0
 70
    24
 71
     3
 72
    22
 73
    18
 74
     0
 42
0.00000001
 43
0.00000001
 40
0.0
 40
0.0
 40
0.0
 40
0.0
 40
0.2500000000000013
 40
0.2500000000000013
 40
0.5000000000000027
 40
0.5000000000000027
 40
0.6250000000000036
 40
0.6250000000000036
 40
0.7500000000000044
 40
0.7500000000000044
 40
0.8125000000000033
 40
0.8125000000000033
 40
0.8750000000000022
 40
0.8750000000000022
 40
0.9375000000000011
 40
0.9375000000000011
 40
1.0
 40
1.0
 40
1.0
 40
1.0
 10
2.093055555555556
 20
1.520687713676351
 30
0.0
 10
2.093055555555556
 20
1.520687713676351
 30
0.0
 10
2.093055555555556
 20
1.521439955014481
 30
0.0
 10
2.093055555555556
 20
1.525697611352701
 30
0.0
 10
2.093055555555556
 20
1.52919438263801
 30
0.0
 10
2.093055555555556
 20
1.53808973514248
 30
0.0
 10
2.093055555555556
 20
1.541665947744398
 30
0.0
 10
2.093055555555556
 20
1.550650260404288
 30
0.0
 10
2.093055555555556
 20
1.555994206613116
 30
0.0
 10
2.093055555555556
 20
1.565970042112179
 30
0.0
 10
2.093055555555556
 20
1.56965545168405
 30
0.0
 10
2.093055555555557
 20
1.577729341929158
 30
0.0
 10
2.093055555555557
 20
1.582128352437982
 30
0.0
 10
2.093055555555557
 20
1.591958267211392
 30
0.0
 10
2.093055555555556
 20
1.597216221756269
 30
0.0
 10
2.093055555555556
 20
1.608603202045384
 30
0.0
 10
2.093055555555556
 20
1.614589325731562
 30
0.0
 10
2.093055555555556
 20
1.620687713676296
 30
0.0
  0
LINE
  5
10F
330
1F
100
AcDbEntity
  8
0
  6
Continuous
 62
     7
370
    15
100
AcDbLine
 10
2.0930555556
 20
1.5206877137
 30
0.0
 11
2.3071552084
 21
1.5206877137
 31
0.0
  0
SPLINE
  5
110
330
1F
100
AcDbEntity
  8
0
  6
Continuous
 62
     7
370
    15
100
AcDbSpline
210
0.0
220
0.0
230
1.0
 70
    24
 71
     3
 72
    22
 73
    18
 74
     0
 42
0.00000001
 43
0.00000001
 40
0.0
 40
0.0
 40
0.0
 40
0.0
 40
0.0625
 40
0.0625
 40
0.1250000000000001
 40
0.1250000000000001
 40
0.1875000000000001
 40
0.1875000000000001
 40
0.2500000000000001
 40
0.2500000000000001
 40
0.3750000000000002
 40
0.3750000000000002
 40
0.5000000000000002
 40
0.5000000000000002
 40
0.7500000000000002
 40
0.7500000000000002
 40
1.0
 40
1.0
 40
1.0
 40
1.0
 10
2.093055555555556
 20
3.61068771367635
 30
0.0
 10
2.093055555555556
 20
3.616820611470708
 30
0.0
 10
2.093055555555557
 20
3.622764973831204
 30
0.0
 10
2.093055555555556
 20
3.634268753288474
 30
0.0
 10
2.093055555555557
 20
3.63957221951902
 30
0.0
 10
2.093055555555556
 20
3.649430206882839
 30
0.0
 10
2.093055555555556
 20
3.653836536908069
 30
0.0
 10
2.093055555555556
 20
3.66191841802948
 30
0.0
 10
2.093055555555556
 20
3.665610144632717
 30
0.0
 10
2.093055555555556
 20
3.675592522006935
 30
0.0
 10
2.093055555555556
 20
3.680889856541155
 30
0.0
 10
2.093055555555556
 20
3.689838582610208
 30
0.0
 10
2.093055555555556
 20
3.69344013730686
 30
0.0
 10
2.093055555555556
 20
3.702267372495597
 30
0.0
 10
2.093055555555556
 20
3.70569265408826
 30
0.0
 10
2.093055555555556
 20
3.709930085439574
 30
0.0
 10
2.093055555555556
 20
3.710687713676351
 30
0.0
 10
2.093055555555556
 20
3.710687713676351
 30
0.0
  0
LINE
  5
111
330
1F
100
AcDbEntity
  8
0
  6
Continuous
 62
     7
370
    15
100
AcDbLine
 10
2.0930555556
 20
3.7106877137
 30
0.0
 11
2.3071552084
 21
3.7106877137
 31
0.0
  0
SPLINE
  5
112
330
1F
100
AcDbEntity
  8
0
  6
Continuous
 62
     7
370
    15
100
AcDbSpline
210
0.0
220
0.0
230
1.0
 70
     8
 71
     3
 72
    16
 73
    12
 74
     0
 42
0.00000001
 43
0.00000001
 40
0.0
 40
0.0
 40
0.0
 40
0.0
 40
0.25
 40
0.25
 40
0.5
 40
0.5
 40
0.75
 40
0.75
 40
0.875
 40
0.875
 40
1.0
 40
1.0
 40
1.0
 40
1.0
 10
2.925723492135154
 20
7.410687713676352
 30
0.0
 10
2.935938811090797
 20
7.410687713676352
 30
0.0
 10
2.946134616193662
 20
7.411099612849624
 30
0.0
 10
2.966394888687748
 20
7.413321873382576
 30
0.0
 10
2.976523477466504
 20
7.415120272385594
 30
0.0
 10
2.996307927854702
 20
7.42117980594494
 30
0.0
 10
3.006026755839219
 20
7.425386918384238
 30
0.0
 10
3.018631686580086
 20
7.435236811512108
 30
0.0
 10
3.022592769702829
 20
7.439224931240311
 30
0.0
 10
3.028594987857153
 20
7.448909788181708
 30
0.0
 10
3.030555555555615
 20
7.454667569204565
 30
0.0
 10
3.030555555555615
 20
7.460687713676345
 30
0.0
  0
LINE
  5
113
330
1F
100
AcDbEntity
  8
0
  6
Continuous
 62
     7
370
    15
100
AcDbLine
 10
2.7805555556
 20
7.4106877137
 30
0.0
 11
2.9257234921
 21
7.4106877137
 31
0.0
  0
LINE
  5
114
330
1F
100
AcDbEntity
  8
0
  6
Continuous
 62
     7
370
    15
100
AcDbLine
 10
2.635387619
 20
7.4106877137
 30
0.0
 11
2.7805555556
 21
7.4106877137
 31
0.0
  0
SPLINE
  5
115
330
1F
100
AcDbEntity
  8
0
  6
Continuous
 62
     7
370
    15
100
AcDbSpline
210
0.0
220
0.0
230
1.0
 70
     8
 71
     3
 72
    18
 73
    14
 74
     0
 42
0.00000001
 43
0.00000001
 40
0.0
 40
0.0
 40
0.0
 40
0.0
 40
0.1250000000000002
 40
0.1250000000000002
 40
0.2500000000000004
 40
0.2500000000000004
 40
0.3750000000000006
 40
0.3750000000000006
 40
0.5000000000000008
 40
0.5000000000000008
 40
0.7500000000000004
 40
0.7500000000000004
 40
1.0
 40
1.0
 40
1.0
 40
1.0
 10
2.530555555555556
 20
7.460687713676351
 30
0.0
 10
2.530555555555556
 20
7.454663177076736
 30
0.0
 10
2.532502740982806
 20
7.448922707070996
 30
0.0
 10
2.538563492272967
 20
7.439160797875571
 30
0.0
 10
2.542477118596305
 20
7.435229473109597
 30
0.0
 10
2.55101112306961
 20
7.42857914789013
 30
0.0
 10
2.555571865976776
 20
7.425922170912702
 30
0.0
 10
2.565049129346375
 20
7.421417520791424
 30
0.0
 10
2.569969990429538
 20
7.419588535130213
 30
0.0
 10
2.584742455612492
 20
7.41509098498859
 30
0.0
 10
2.59475620929648
 20
7.413316841947096
 30
0.0
 10
2.614963872297491
 20
7.411101643694725
 30
0.0
 10
2.625182303599829
 20
7.410687713676352
 30
0.0
 10
2.635387618975959
 20
7.410687713676352
 30
0.0
  0
LINE
  5
116
330
1F
100
AcDbEntity
  8
0
  6
Continuous
 62
     7
370
    15
100
AcDbLine
 10
2.5305555556
 20
7.6606877137
 30
0.0
 11
2.5305555556
 21
7.4606877137
 31
0.0
  0
SPLINE
  5
117
330
1F
100
AcDbEntity
  8
0
  6
Continuous
 62
     7
370
    15
100
AcDbSpline
210
0.0
220
0.0
230
1.0
 70
     8
 71
     3
 72
    16
 73
    12
 74
     0
 42
0.00000001
 43
0.00000001
 40
0.0
 40
0.0
 40
0.0
 40
0.0
 40
0.2499999999999998
 40
0.2499999999999998
 40
0.4999999999999999
 40
0.4999999999999999
 40
0.7499999999999999
 40
0.7499999999999999
 40
0.875
 40
0.875
 40
1.0
 40
1.0
 40
1.0
 40
1.0
 10
2.635387618975959
 20
7.710687713676351
 30
0.0
 10
2.625172300020315
 20
7.71068771367635
 30
0.0
 10
2.614976494917451
 20
7.710275814503078
 30
0.0
 10
2.594716222423366
 20
7.708053553970124
 30
0.0
 10
2.584587633644609
 20
7.706255154967108
 30
0.0
 10
2.564803183256412
 20
7.700195621407762
 30
0.0
 10
2.555084355271895
 20
7.695988508968464
 30
0.0
 10
2.542479424531027
 20
7.686138615840595
 30
0.0
 10
2.538518341408285
 20
7.682150496112391
 30
0.0
 10
2.532516123253961
 20
7.672465639170995
 30
0.0
 10
2.530555555555499
 20
7.666707858148136
 30
0.0
 10
2.530555555555499
 20
7.660687713676356
 30
0.0
  0
LINE
  5
118
330
1F
100
AcDbEntity
  8
0
  6
Continuous
 62
     7
370
    15
100
AcDbLine
 10
2.635387619
 20
7.7106877137
 30
0.0
 11
2.9257234921
 21
7.7106877137
 31
0.0
  0
SPLINE
  5
119
330
1F
100
AcDbEntity
  8
0
  6
Continuous
 62
     7
370
    15
100
AcDbSpline
210
0.0
220
0.0
230
1.0
 70
     8
 71
     3
 72
    18
 73
    14
 74
     0
 42
0.00000001
 43
0.00000001
 40
0.0
 40
0.0
 40
0.0
 40
0.0
 40
0.1249999999999998
 40
0.1249999999999998
 40
0.2499999999999997
 40
0.2499999999999997
 40
0.3749999999999995
 40
0.3749999999999995
 40
0.4999999999999993
 40
0.4999999999999993
 40
0.7499999999999997
 40
0.7499999999999997
 40
1.0
 40
1.0
 40
1.0
 40
1.0
 10
3.030555555555558
 20
7.66068771367635
 30
0.0
 10
3.030555555555558
 20
7.666712250275966
 30
0.0
 10
3.028608370128308
 20
7.672452720281706
 30
0.0
 10
3.022547618838147
 20
7.68221462947713
 30
0.0
 10
3.018633992514809
 20
7.686145954243107
 30
0.0
 10
3.010099988041504
 20
7.692796279462572
 30
0.0
 10
3.005539245134338
 20
7.69545325644
 30
0.0
 10
2.996061981764739
 20
7.699957906561279
 30
0.0
 10
2.991141120681575
 20
7.701786892222491
 30
0.0
 10
2.976368655498622
 20
7.706284442364113
 30
0.0
 10
2.966354901814634
 20
7.708058585405608
 30
0.0
 10
2.946147238813623
 20
7.710273783657978
 30
0.0
 10
2.935928807511284
 20
7.71068771367635
 30
0.0
 10
2.925723492135155
 20
7.710687713676351
 30
0.0
  0
LINE
  5
11A
330
1F
100
AcDbEntity
  8
0
  6
Continuous
 62
     7
370
    15
100
AcDbLine
 10
3.0305555556
 20
7.6606877137
 30
0.0
 11
3.0305555556
 21
7.4606877137
 31
0.0
  0
SPLINE
  5
11B
330
1F
100
AcDbEntity
  8
0
  6
Continuous
 62
     7
370
    15
100
AcDbSpline
210
0.0
220
0.0
230
1.0
 70
    24
 71
     3
 72
    22
 73
    18
 74
     0
 42
0.00000001
 43
0.00000001
 40
0.0
 40
0.0
 40
0.0
 40
0.0
 40
0.2499999999999993
 40
0.2499999999999993
 40
0.4999999999999989
 40
0.4999999999999989
 40
0.6249999999999988
 40
0.6249999999999988
 40
0.7499999999999987
 40
0.7499999999999987
 40
0.812499999999999
 40
0.812499999999999
 40
0.8749999999999994
 40
0.8749999999999994
 40
0.9374999999999997
 40
0.9374999999999997
 40
1.0
 40
1.0
 40
1.0
 40
1.0
 10
2.170555555555556
 20
6.170687713676351
 30
0.0
 10
2.170555555555556
 20
6.170687713676351
 30
0.0
 10
2.170555555555556
 20
6.171324474703535
 30
0.0
 10
2.170555555555556
 20
6.175266564883362
 30
0.0
 10
2.170555555555557
 20
6.178534291293137
 30
0.0
 10
2.170555555555556
 20
6.187206631185954
 30
0.0
 10
2.170555555555556
 20
6.190716711713505
 30
0.0
 10
2.170555555555556
 20
6.199500217304442
 30
0.0
 10
2.170555555555557
 20
6.204783189636711
 30
0.0
 10
2.170555555555557
 20
6.214826105057186
 30
0.0
 10
2.170555555555556
 20
6.218493747813943
 30
0.0
 10
2.170555555555557
 20
6.226693463242385
 30
0.0
 10
2.170555555555557
 20
6.231215518316828
 30
0.0
 10
2.170555555555557
 20
6.241079283716578
 30
0.0
 10
2.170555555555557
 20
6.246560492385194
 30
0.0
 10
2.170555555555557
 20
6.258192724953555
 30
0.0
 10
2.170555555555557
 20
6.264398477751555
 30
0.0
 10
2.170555555555557
 20
6.270687713676351
 30
0.0
  0
LINE
  5
11C
330
1F
100
AcDbEntity
  8
0
  6
Continuous
 62
     7
370
    15
100
AcDbLine
 10
2.1705555556
 20
6.1706877137
 30
0.0
 11
2.3921241986
 21
6.1706877137
 31
0.0
  0
SPLINE
  5
11D
330
1F
100
AcDbEntity
  8
0
  6
Continuous
 62
     7
370
    15
100
AcDbSpline
210
0.0
220
0.0
230
1.0
 70
    24
 71
     3
 72
    22
 73
    18
 74
     0
 42
0.00000001
 43
0.00000001
 40
0.0
 40
0.0
 40
0.0
 40
0.0
 40
0.0625000000000002
 40
0.0625000000000002
 40
0.1250000000000003
 40
0.1250000000000003
 40
0.1875000000000005
 40
0.1875000000000005
 40
0.2500000000000007
 40
0.2500000000000007
 40
0.375000000000001
 40
0.375000000000001
 40
0.5000000000000013
 40
0.5000000000000013
 40
0.7500000000000007
 40
0.7500000000000007
 40
1.0
 40
1.0
 40
1.0
 40
1.0
 10
2.170555555555557
 20
7.07068771367635
 30
0.0
 10
2.170555555555557
 20
7.077002312739325
 30
0.0
 10
2.170555555555557
 20
7.083133670149848
 30
0.0
 10
2.170555555555557
 20
7.094920259083096
 30
0.0
 10
2.170555555555557
 20
7.100360202283635
 30
0.0
 10
2.170555555555557
 20
7.110375728118345
 30
0.0
 10
2.170555555555557
 20
7.114841699411689
 30
0.0
 10
2.170555555555557
 20
7.123014592582096
 30
0.0
 10
2.170555555555557
 20
7.126730755874185
 30
0.0
 10
2.170555555555557
 20
7.136721919214154
 30
0.0
 10
2.170555555555556
 20
7.141990133548274
 30
0.0
 10
2.170555555555557
 20
7.150835698805508
 30
0.0
 10
2.170555555555556
 20
7.154339366944467
 30
0.0
 10
2.170555555555556
 20
7.162890844981131
 30
0.0
 10
2.170555555555556
 20
7.166115078326667
 30
0.0
 10
2.170555555555556
 20
7.170040350292626
 30
0.0
 10
2.170555555555556
 20
7.170687713676352
 30
0.0
 10
2.170555555555556
 20
7.170687713676351
 30
0.0
  0
LINE
  5
11E
330
1F
100
AcDbEntity
  8
0
  6
Continuous
 62
     7
370
    15
100
AcDbLine
 10
2.1705555556
 20
7.1706877137
 30
0.0
 11
2.3921241986
 21
7.1706877137
 31
0.0
  0
SPLINE
  5
11F
330
1F
100
AcDbEntity
  8
0
  6
Continuous
 62
     7
370
    15
100
AcDbSpline
210
0.0
220
0.0
230
1.0
 70
    24
 71
     3
 72
    22
 73
    18
 74
     0
 42
0.00000001
 43
0.00000001
 40
0.0
 40
0.0
 40
0.0
 40
0.0
 40
0.0625000000000003
 40
0.0625000000000003
 40
0.1250000000000007
 40
0.1250000000000007
 40
0.1875000000000011
 40
0.1875000000000011
 40
0.2500000000000014
 40
0.2500000000000014
 40
0.3750000000000011
 40
0.3750000000000011
 40
0.5000000000000008
 40
0.5000000000000008
 40
0.7500000000000003
 40
0.7500000000000003
 40
1.0
 40
1.0
 40
1.0
 40
1.0
 10
3.968055555555557
 20
1.620687713676362
 30
0.0
 10
3.968055555555557
 20
1.614554815882004
 30
0.0
 10
3.968055555555557
 20
1.608610453521508
 30
0.0
 10
3.968055555555557
 20
1.597106674064236
 30
0.0
 10
3.968055555555557
 20
1.591803207833691
 30
0.0
 10
3.968055555555557
 20
1.581945220469869
 30
0.0
 10
3.968055555555557
 20
1.577538890444639
 30
0.0
 10
3.968055555555557
 20
1.569457009323227
 30
0.0
 10
3.968055555555557
 20
1.565765282719989
 30
0.0
 10
3.968055555555557
 20
1.555782905345771
 30
0.0
 10
3.968055555555557
 20
1.55048557081155
 30
0.0
 10
3.968055555555557
 20
1.541536844742495
 30
0.0
 10
3.968055555555557
 20
1.537935290045843
 30
0.0
 10
3.968055555555557
 20
1.529108054857105
 30
0.0
 10
3.968055555555557
 20
1.525682773264442
 30
0.0
 10
3.968055555555556
 20
1.521445341913126
 30
0.0
 10
3.968055555555556
 20
1.520687713676351
 30
0.0
 10
3.968055555555556
 20
1.520687713676351
 30
0.0
  0
LINE
  5
120
330
1F
100
AcDbEntity
  8
0
  6
Continuous
 62
     7
370
    15
100
AcDbLine
 10
3.7539559027
 20
1.5206877137
 30
0.0
 11
3.9680555556
 21
1.5206877137
 31
0.0
  0
SPLINE
  5
121
330
1F
100
AcDbEntity
  8
0
  6
Continuous
 62
     7
370
    15
100
AcDbSpline
210
0.0
220
0.0
230
1.0
 70
    24
 71
     3
 72
    22
 73
    18
 74
     0
 42
0.00000001
 43
0.00000001
 40
0.0
 40
0.0
 40
0.0
 40
0.0
 40
0.2500000000000003
 40
0.2500000000000003
 40
0.5000000000000007
 40
0.5000000000000007
 40
0.6250000000000011
 40
0.6250000000000011
 40
0.7500000000000014
 40
0.7500000000000014
 40
0.8125000000000011
 40
0.8125000000000011
 40
0.8750000000000007
 40
0.8750000000000007
 40
0.9375000000000003
 40
0.9375000000000003
 40
1.0
 40
1.0
 40
1.0
 40
1.0
 10
3.968055555555556
 20
3.710687713676351
 30
0.0
 10
3.968055555555556
 20
3.710687713676351
 30
0.0
 10
3.968055555555557
 20
3.709935472338221
 30
0.0
 10
3.968055555555557
 20
3.705677816000002
 30
0.0
 10
3.968055555555557
 20
3.702181044714692
 30
0.0
 10
3.968055555555557
 20
3.693285692210223
 30
0.0
 10
3.968055555555557
 20
3.689709479608304
 30
0.0
 10
3.968055555555557
 20
3.680725166948415
 30
0.0
 10
3.968055555555557
 20
3.675381220739586
 30
0.0
 10
3.968055555555557
 20
3.665405385240524
 30
0.0
 10
3.968055555555557
 20
3.661719975668654
 30
0.0
 10
3.968055555555557
 20
3.653646085423545
 30
0.0
 10
3.968055555555557
 20
3.649247074914723
 30
0.0
 10
3.968055555555557
 20
3.639417160141312
 30
0.0
 10
3.968055555555557
 20
3.634159205596435
 30
0.0
 10
3.968055555555557
 20
3.62277222530732
 30
0.0
 10
3.968055555555557
 20
3.616786101621142
 30
0.0
 10
3.968055555555557
 20
3.610687713676407
 30
0.0
  0
LINE
  5
122
330
1F
100
AcDbEntity
  8
0
  6
Continuous
 62
     7
370
    15
100
AcDbLine
 10
3.7539559027
 20
3.7106877137
 30
0.0
 11
3.9680555556
 21
3.7106877137
 31
0.0
  0
SPLINE
  5
123
330
1F
100
AcDbEntity
  8
0
  6
Continuous
 62
     7
370
    15
100
AcDbSpline
210
0.0
220
0.0
230
1.0
 70
    24
 71
     3
 72
    22
 73
    18
 74
     0
 42
0.00000001
 43
0.00000001
 40
0.0
 40
0.0
 40
0.0
 40
0.0
 40
0.0624999999999997
 40
0.0624999999999997
 40
0.1249999999999994
 40
0.1249999999999994
 40
0.1874999999999991
 40
0.1874999999999991
 40
0.2499999999999988
 40
0.2499999999999988
 40
0.3749999999999984
 40
0.3749999999999984
 40
0.4999999999999981
 40
0.4999999999999981
 40
0.749999999999999
 40
0.749999999999999
 40
1.0
 40
1.0
 40
1.0
 40
1.0
 10
3.890555555555557
 20
6.270687713676351
 30
0.0
 10
3.890555555555557
 20
6.264373114613377
 30
0.0
 10
3.890555555555557
 20
6.258241757202853
 30
0.0
 10
3.890555555555557
 20
6.246455168269607
 30
0.0
 10
3.890555555555557
 20
6.241015225069066
 30
0.0
 10
3.890555555555557
 20
6.230999699234356
 30
0.0
 10
3.890555555555557
 20
6.226533727941013
 30
0.0
 10
3.890555555555557
 20
6.218360834770605
 30
0.0
 10
3.890555555555557
 20
6.214644671478517
 30
0.0
 10
3.890555555555557
 20
6.204653508138549
 30
0.0
 10
3.890555555555557
 20
6.199385293804429
 30
0.0
 10
3.890555555555557
 20
6.190539728547194
 30
0.0
 10
3.890555555555557
 20
6.187036060408236
 30
0.0
 10
3.890555555555557
 20
6.178484582371571
 30
0.0
 10
3.890555555555557
 20
6.175260349026034
 30
0.0
 10
3.890555555555557
 20
6.171335077060077
 30
0.0
 10
3.890555555555556
 20
6.170687713676351
 30
0.0
 10
3.890555555555556
 20
6.170687713676351
 30
0.0
  0
LINE
  5
124
330
1F
100
AcDbEntity
  8
0
  6
Continuous
 62
     7
370
    15
100
AcDbLine
 10
3.6689869125
 20
6.1706877137
 30
0.0
 11
3.8905555556
 21
6.1706877137
 31
0.0
  0
SPLINE
  5
125
330
1F
100
AcDbEntity
  8
0
  6
Continuous
 62
     7
370
    15
100
AcDbSpline
210
0.0
220
0.0
230
1.0
 70
    24
 71
     3
 72
    22
 73
    18
 74
     0
 42
0.00000001
 43
0.00000001
 40
0.0
 40
0.0
 40
0.0
 40
0.0
 40
0.2500000000000006
 40
0.2500000000000006
 40
0.5000000000000012
 40
0.5000000000000012
 40
0.6250000000000014
 40
0.6250000000000014
 40
0.7500000000000016
 40
0.7500000000000016
 40
0.8125000000000012
 40
0.8125000000000012
 40
0.8750000000000008
 40
0.8750000000000008
 40
0.9375000000000004
 40
0.9375000000000004
 40
1.0
 40
1.0
 40
1.0
 40
1.0
 10
3.890555555555556
 20
7.170687713676351
 30
0.0
 10
3.890555555555557
 20
7.170687713676352
 30
0.0
 10
3.890555555555557
 20
7.170050952649167
 30
0.0
 10
3.890555555555557
 20
7.166108862469339
 30
0.0
 10
3.890555555555557
 20
7.162841136059566
 30
0.0
 10
3.890555555555557
 20
7.154168796166748
 30
0.0
 10
3.890555555555557
 20
7.150658715639197
 30
0.0
 10
3.890555555555557
 20
7.14187521004826
 30
0.0
 10
3.890555555555557
 20
7.136592237715989
 30
0.0
 10
3.890555555555557
 20
7.126549322295518
 30
0.0
 10
3.890555555555557
 20
7.12288167953876
 30
0.0
 10
3.890555555555557
 20
7.114681964110318
 30
0.0
 10
3.890555555555557
 20
7.110159909035874
 30
0.0
 10
3.890555555555557
 20
7.100296143636123
 30
0.0
 10
3.890555555555557
 20
7.094814934967509
 30
0.0
 10
3.890555555555557
 20
7.083182702399148
 30
0.0
 10
3.890555555555557
 20
7.076976949601146
 30
0.0
 10
3.890555555555557
 20
7.07068771367635
 30
0.0
  0
LINE
  5
126
330
1F
100
AcDbEntity
  8
0
  6
Continuous
 62
     7
370
    15
100
AcDbLine
 10
3.6689869125
 20
7.1706877137
 30
0.0
 11
3.8905555556
 21
7.1706877137
 31
0.0
  0
SPLINE
  5
127
330
1F
100
AcDbEntity
  8
0
  6
Continuous
 62
     7
370
    15
100
AcDbSpline
210
0.0
220
0.0
230
1.0
 70
     8
 71
     3
 72
    18
 73
    14
 74
     0
 42
0.00000001
 43
0.00000001
 40
0.0
 40
0.0
 40
0.0
 40
0.0
 40
0.25
 40
0.25
 40
0.5
 40
0.5
 40
0.625
 40
0.625
 40
0.75
 40
0.75
 40
0.875
 40
0.875
 40
1.0
 40
1.0
 40
1.0
 40
1.0
 10
3.135387618975959
 20
7.710687713676351
 30
0.0
 10
3.125207908669088
 20
7.71068771367635
 30
0.0
 10
3.115003215927089
 20
7.710279699566492
 30
0.0
 10
3.094649340378973
 20
7.708045261934331
 30
0.0
 10
3.084589225194084
 20
7.706251627954664
 30
0.0
 10
3.069814866277373
 20
7.701732581285328
 30
0.0
 10
3.064915154047227
 20
7.699903822709826
 30
0.0
 10
3.055436739174789
 20
7.695379156936036
 30
0.0
 10
3.050821729005421
 20
7.692670105742086
 30
0.0
 10
3.042366272617991
 20
7.68603738626402
 30
0.0
 10
3.038444194750569
 20
7.682054936847003
 30
0.0
 10
3.032500693861674
 20
7.672416298470436
 30
0.0
 10
3.030555555555555
 20
7.666633203177014
 30
0.0
 10
3.030555555555555
 20
7.66068771367635
 30
0.0
  0
LINE
  5
128
330
1F
100
AcDbEntity
  8
0
  6
Continuous
 62
     7
370
    15
100
AcDbLine
 10
3.135387619
 20
7.7106877137
 30
0.0
 11
2.9257234921
 21
7.7106877137
 31
0.0
  0
SPLINE
  5
129
330
1F
100
AcDbEntity
  8
0
  6
Continuous
 62
     7
370
    15
100
AcDbSpline
210
0.0
220
0.0
230
1.0
 70
     8
 71
     3
 72
    18
 73
    14
 74
     0
 42
0.00000001
 43
0.00000001
 40
0.0
 40
0.0
 40
0.0
 40
0.0
 40
0.125
 40
0.125
 40
0.25
 40
0.25
 40
0.375
 40
0.375
 40
0.5
 40
0.5
 40
0.75
 40
0.75
 40
1.0
 40
1.0
 40
1.0
 40
1.0
 10
3.030555555555557
 20
7.460687713676351
 30
0.0
 10
3.030555555555557
 20
7.454659734255074
 30
0.0
 10
3.032518936782177
 20
7.448898424963907
 30
0.0
 10
3.038540655125425
 20
7.439195779033846
 30
0.0
 10
3.042455856393801
 20
7.43524581788122
 30
0.0
 10
3.051035449555766
 20
7.428560415282988
 30
0.0
 10
3.055611968086334
 20
7.425901017804629
 30
0.0
 10
3.065067392055233
 20
7.421410945399956
 30
0.0
 10
3.069989762073031
 20
7.419580356981363
 30
0.0
 10
3.084846693267069
 20
7.415063597961677
 30
0.0
 10
3.094870192289795
 20
7.413299811678097
 30
0.0
 10
3.115043489660017
 20
7.411097494912116
 30
0.0
 10
3.125196027863799
 20
7.410687713676352
 30
0.0
 10
3.135387618975959
 20
7.410687713676352
 30
0.0
  0
LINE
  5
12A
330
1F
100
AcDbEntity
  8
0
  6
Continuous
 62
     7
370
    15
100
AcDbLine
 10
2.9257234921
 20
7.4106877137
 30
0.0
 11
3.135387619
 21
7.4106877137
 31
0.0
  0
SPLINE
  5
12B
330
1F
100
AcDbEntity
  8
0
  6
Continuous
 62
     7
370
    15
100
AcDbSpline
210
0.0
220
0.0
230
1.0
 70
     8
 71
     3
 72
    18
 73
    14
 74
     0
 42
0.00000001
 43
0.00000001
 40
0.0
 40
0.0
 40
0.0
 40
0.0
 40
0.1250000000000009
 40
0.1250000000000009
 40
0.2500000000000018
 40
0.2500000000000018
 40
0.3750000000000028
 40
0.3750000000000028
 40
0.5000000000000037
 40
0.5000000000000037
 40
0.7500000000000018
 40
0.7500000000000018
 40
1.0
 40
1.0
 40
1.0
 40
1.0
 10
3.530555555555556
 20
7.66068771367635
 30
0.0
 10
3.530555555555557
 20
7.666715693097628
 30
0.0
 10
3.528592174328938
 20
7.672477002388796
 30
0.0
 10
3.522570455985689
 20
7.682179648318855
 30
0.0
 10
3.518655254717313
 20
7.686129609471483
 30
0.0
 10
3.510075661555348
 20
7.692815012069715
 30
0.0
 10
3.50549914302478
 20
7.695474409548074
 30
0.0
 10
3.49604371905588
 20
7.699964481952747
 30
0.0
 10
3.491121349038082
 20
7.701795070371339
 30
0.0
 10
3.476264417844044
 20
7.706311829391025
 30
0.0
 10
3.466240918821319
 20
7.708075615674606
 30
0.0
 10
3.446067621451097
 20
7.710277932440587
 30
0.0
 10
3.435915083247314
 20
7.71068771367635
 30
0.0
 10
3.425723492135155
 20
7.710687713676351
 30
0.0
  0
LINE
  5
12C
330
1F
100
AcDbEntity
  8
0
  6
Continuous
 62
     7
370
    15
100
AcDbLine
 10
3.5305555556
 20
7.6606877137
 30
0.0
 11
3.5305555556
 21
7.4606877137
 31
0.0
  0
SPLINE
  5
12D
330
1F
100
AcDbEntity
  8
0
  6
Continuous
 62
     7
370
    15
100
AcDbSpline
210
0.0
220
0.0
230
1.0
 70
     8
 71
     3
 72
    18
 73
    14
 74
     0
 42
0.00000001
 43
0.00000001
 40
0.0
 40
0.0
 40
0.0
 40
0.0
 40
0.2500000000000018
 40
0.2500000000000018
 40
0.5000000000000036
 40
0.5000000000000036
 40
0.6250000000000027
 40
0.6250000000000027
 40
0.7500000000000018
 40
0.7500000000000018
 40
0.8750000000000009
 40
0.8750000000000009
 40
1.0
 40
1.0
 40
1.0
 40
1.0
 10
3.425723492135154
 20
7.410687713676352
 30
0.0
 10
3.435903202442024
 20
7.410687713676352
 30
0.0
 10
3.446107895184023
 20
7.411095727786212
 30
0.0
 10
3.46646177073214
 20
7.413330165418371
 30
0.0
 10
3.476521885917029
 20
7.415123799398038
 30
0.0
 10
3.49129624483374
 20
7.419642846067374
 30
0.0
 10
3.496195957063886
 20
7.421471604642877
 30
0.0
 10
3.505674371936325
 20
7.425996270416666
 30
0.0
 10
3.510289382105693
 20
7.428705321610615
 30
0.0
 10
3.518744838493123
 20
7.435338041088682
 30
0.0
 10
3.522666916360546
 20
7.4393204905057
 30
0.0
 10
3.52861041724944
 20
7.448959128882265
 30
0.0
 10
3.530555555555559
 20
7.454742224175687
 30
0.0
 10
3.530555555555559
 20
7.460687713676351
 30
0.0
  0
LINE
  5
12E
330
1F
100
AcDbEntity
  8
0
  6
Continuous
 62
     7
370
    15
100
AcDbLine
 10
3.2805555556
 20
7.4106877137
 30
0.0
 11
3.4257234921
 21
7.4106877137
 31
0.0
  0
LINE
  5
12F
330
1F
100
AcDbEntity
  8
0
  6
Continuous
 62
     7
370
    15
100
AcDbLine
 10
3.135387619
 20
7.4106877137
 30
0.0
 11
3.2805555556
 21
7.4106877137
 31
0.0
  0
LINE
  5
130
330
1F
100
AcDbEntity
  8
0
  6
Continuous
 62
     7
370
    15
100
AcDbLine
 10
3.135387619
 20
7.7106877137
 30
0.0
 11
3.4257234921
 21
7.7106877137
 31
0.0
  0
SPLINE
  5
131
330
1F
100
AcDbEntity
  8
0
  6
Continuous
 62
     7
370
    15
100
AcDbSpline
210
0.0
220
0.0
230
1.0
 70
    24
 71
     3
 72
    16
 73
    12
 74
     0
 42
0.00000001
 43
0.00000001
 40
0.0
 40
0.0
 40
0.0
 40
0.0
 40
0.2500000000000001
 40
0.2500000000000001
 40
0.5000000000000001
 40
0.5000000000000001
 40
0.7500000000000001
 40
0.7500000000000001
 40
0.875
 40
0.875
 40
1.0
 40
1.0
 40
1.0
 40
1.0
 10
2.530555555555556
 20
7.410687713676352
 30
0.0
 10
2.530555555555556
 20
7.410687713676352
 30
0.0
 10
2.530555555555556
 20
7.411099612849624
 30
0.0
 10
2.530555555555556
 20
7.413321873382576
 30
0.0
 10
2.530555555555556
 20
7.415120272385592
 30
0.0
 10
2.530555555555556
 20
7.42117980594494
 30
0.0
 10
2.530555555555556
 20
7.42538691838424
 30
0.0
 10
2.530555555555556
 20
7.435236811512108
 30
0.0
 10
2.530555555555556
 20
7.43922493124031
 30
0.0
 10
2.530555555555556
 20
7.448909788181707
 30
0.0
 10
2.530555555555556
 20
7.454667569204563
 30
0.0
 10
2.530555555555556
 20
7.460687713676345
 30
0.0
  0
LINE
  5
132
330
1F
100
AcDbEntity
  8
0
  6
Continuous
 62
     7
370
    15
100
AcDbLine
 10
2.5305555556
 20
7.4106877137
 30
0.0
 11
2.635387619
 21
7.4106877137
 31
0.0
  0
SPLINE
  5
133
330
1F
100
AcDbEntity
  8
0
  6
Continuous
 62
     7
370
    15
100
AcDbSpline
210
0.0
220
0.0
230
1.0
 70
    24
 71
     3
 72
    18
 73
    14
 74
     0
 42
0.00000001
 43
0.00000001
 40
0.0
 40
0.0
 40
0.0
 40
0.0
 40
0.1249999999999998
 40
0.1249999999999998
 40
0.2499999999999997
 40
0.2499999999999997
 40
0.3749999999999995
 40
0.3749999999999995
 40
0.4999999999999993
 40
0.4999999999999993
 40
0.7499999999999997
 40
0.7499999999999997
 40
1.0
 40
1.0
 40
1.0
 40
1.0
 10
2.530555555555556
 20
7.66068771367635
 30
0.0
 10
2.530555555555556
 20
7.666712250275966
 30
0.0
 10
2.530555555555556
 20
7.672452720281706
 30
0.0
 10
2.530555555555556
 20
7.68221462947713
 30
0.0
 10
2.530555555555556
 20
7.686145954243107
 30
0.0
 10
2.530555555555556
 20
7.692796279462572
 30
0.0
 10
2.530555555555556
 20
7.69545325644
 30
0.0
 10
2.530555555555556
 20
7.699957906561279
 30
0.0
 10
2.530555555555556
 20
7.701786892222491
 30
0.0
 10
2.530555555555556
 20
7.706284442364113
 30
0.0
 10
2.530555555555556
 20
7.708058585405608
 30
0.0
 10
2.530555555555556
 20
7.710273783657978
 30
0.0
 10
2.530555555555556
 20
7.71068771367635
 30
0.0
 10
2.530555555555556
 20
7.710687713676351
 30
0.0
  0
LINE
  5
134
330
1F
100
AcDbEntity
  8
0
  6
Continuous
 62
     7
370
    15
100
AcDbLine
 10
2.635387619
 20
7.7106877137
 30
0.0
 11
2.5305555556
 21
7.7106877137
 31
0.0
  0
SPLINE
  5
135
330
1F
100
AcDbEntity
  8
0
  6
Continuous
 62
     7
370
    15
100
AcDbSpline
210
0.0
220
0.0
230
1.0
 70
    24
 71
     3
 72
    18
 73
    14
 74
     0
 42
0.00000001
 43
0.00000001
 40
0.0
 40
0.0
 40
0.0
 40
0.0
 40
0.1249999999999997
 40
0.1249999999999997
 40
0.2499999999999994
 40
0.2499999999999994
 40
0.3749999999999991
 40
0.3749999999999991
 40
0.4999999999999988
 40
0.4999999999999988
 40
0.7499999999999993
 40
0.7499999999999993
 40
1.0
 40
1.0
 40
1.0
 40
1.0
 10
3.530555555555556
 20
7.460687713676351
 30
0.0
 10
3.530555555555556
 20
7.454663177076736
 30
0.0
 10
3.530555555555556
 20
7.448922707070996
 30
0.0
 10
3.530555555555556
 20
7.439160797875569
 30
0.0
 10
3.530555555555556
 20
7.435229473109597
 30
0.0
 10
3.530555555555556
 20
7.42857914789013
 30
0.0
 10
3.530555555555556
 20
7.425922170912701
 30
0.0
 10
3.530555555555556
 20
7.421417520791424
 30
0.0
 10
3.530555555555556
 20
7.419588535130213
 30
0.0
 10
3.530555555555556
 20
7.41509098498859
 30
0.0
 10
3.530555555555556
 20
7.413316841947096
 30
0.0
 10
3.530555555555555
 20
7.411101643694725
 30
0.0
 10
3.530555555555555
 20
7.410687713676352
 30
0.0
 10
3.530555555555555
 20
7.410687713676352
 30
0.0
  0
LINE
  5
136
330
1F
100
AcDbEntity
  8
0
  6
Continuous
 62
     7
370
    15
100
AcDbLine
 10
3.4257234921
 20
7.4106877137
 30
0.0
 11
3.5305555556
 21
7.4106877137
 31
0.0
  0
SPLINE
  5
137
330
1F
100
AcDbEntity
  8
0
  6
Continuous
 62
     7
370
    15
100
AcDbSpline
210
0.0
220
0.0
230
1.0
 70
    24
 71
     3
 72
    16
 73
    12
 74
     0
 42
0.00000001
 43
0.00000001
 40
0.0
 40
0.0
 40
0.0
 40
0.0
 40
0.2500000000000002
 40
0.2500000000000002
 40
0.5000000000000003
 40
0.5000000000000003
 40
0.7500000000000004
 40
0.7500000000000004
 40
0.8750000000000002
 40
0.8750000000000002
 40
1.0
 40
1.0
 40
1.0
 40
1.0
 10
3.530555555555555
 20
7.710687713676351
 30
0.0
 10
3.530555555555556
 20
7.71068771367635
 30
0.0
 10
3.530555555555555
 20
7.710275814503077
 30
0.0
 10
3.530555555555556
 20
7.708053553970126
 30
0.0
 10
3.530555555555556
 20
7.706255154967109
 30
0.0
 10
3.530555555555556
 20
7.700195621407764
 30
0.0
 10
3.530555555555556
 20
7.695988508968464
 30
0.0
 10
3.530555555555556
 20
7.686138615840596
 30
0.0
 10
3.530555555555556
 20
7.682150496112391
 30
0.0
 10
3.530555555555556
 20
7.672465639170995
 30
0.0
 10
3.530555555555556
 20
7.666707858148139
 30
0.0
 10
3.530555555555556
 20
7.660687713676356
 30
0.0
  0
LINE
  5
138
330
1F
100
AcDbEntity
  8
0
  6
Continuous
 62
     7
370
    15
100
AcDbLine
 10
3.4257234921
 20
7.7106877137
 30
0.0
 11
3.5305555556
 21
7.7106877137
 31
0.0
  0
DIMENSION
  5
139
330
1F
100
AcDbEntity
  8
TEXTF
100
AcDbDimension
  2
*D2
 10
4.6255610957
 20
0.5306877137
 30
0.0
 11
4.6255610957
 21
3.5520084973
 31
0.0
 70
   160
 71
     2
 42
-1.0
  3
SLDDIMSTYLE1
100
AcDbAlignedDimension
 13
3.4257234921
 23
7.7106877137
 33
0.0
 14
3.8405555556
 24
0.5306877137
 34
0.0
 50
90.0
100
AcDbRotatedDimension
  0
SPLINE
  5
145
330
1F
100
AcDbEntity
  8
0
  6
Continuous
 62
     7
370
    15
100
AcDbSpline
210
0.0
220
0.0
230
1.0
 70
    24
 71
     3
 72
    16
 73
    12
 74
     0
 42
0.00000001
 43
0.00000001
 40
0.0
 40
0.0
 40
0.0
 40
0.0
 40
0.2500000000000003
 40
0.2500000000000003
 40
0.5000000000000007
 40
0.5000000000000007
 40
0.750000000000001
 40
0.750000000000001
 40
0.8750000000000004
 40
0.8750000000000004
 40
1.0
 40
1.0
 40
1.0
 40
1.0
 10
10.54152682785721
 20
10.12211555555555
 30
0.0
 10
10.55332246215501
 20
10.12211555555555
 30
0.0
 10
10.56509556379649
 20
10.12211555555555
 30
0.0
 10
10.58849011135312
 20
10.12211555555555
 30
0.0
 10
10.60018559826898
 20
10.12211555555555
 30
0.0
 10
10.62303071378377
 20
10.12211555555555
 30
0.0
 10
10.6342530496899
 20
10.12211555555555
 30
0.0
 10
10.64880797000262
 20
10.12211555555555
 30
0.0
 10
10.65338183481701
 20
10.12211555555555
 30
0.0
 10
10.66031259935128
 20
10.12211555555555
 30
0.0
 10
10.66257646792822
 20
10.12211555555555
 30
0.0
 10
10.66257646792822
 20
10.12211555555555
 30
0.0
  0
ARC
  5
146
330
1F
100
AcDbEntity
  8
0
  6
Continuous
 62
     7
370
    15
100
AcDbCircle
 10
10.3739013333
 20
9.6221155556
 30
0.0
 40
0.527350269189628
100
AcDbArc
 50
48.5337780898
 51
71.4662219102
  0
SPLINE
  5
147
330
1F
100
AcDbEntity
  8
0
  6
Continuous
 62
     7
370
    15
100
AcDbSpline
210
0.0
220
0.0
230
1.0
 70
    24
 71
     3
 72
    18
 73
    14
 74
     0
 42
0.00000001
 43
0.00000001
 40
0.0
 40
0.0
 40
0.0
 40
0.0
 40
0.1250000000000007
 40
0.1250000000000007
 40
0.2500000000000014
 40
0.2500000000000014
 40
0.3750000000000022
 40
0.3750000000000022
 40
0.5000000000000029
 40
0.5000000000000029
 40
0.7500000000000014
 40
0.7500000000000014
 40
1.0
 40
1.0
 40
1.0
 40
1.0
 10
10.66257646792816
 20
10.12211555555555
 30
0.0
 10
10.66257646792816
 20
10.12211555555555
 30
0.0
 10
10.66371002660787
 20
10.12015217432893
 30
0.0
 10
10.66718666731433
 20
10.11413045598569
 30
0.0
 10
10.66944710982055
 20
10.11021525471731
 30
0.0
 10
10.67440054024215
 20
10.10163566155534
 30
0.0
 10
10.67704279444773
 20
10.09705914302478
 30
0.0
 10
10.68250188602147
 20
10.08760371905588
 30
0.0
 10
10.6853438176763
 20
10.08268134903808
 30
0.0
 10
10.69392147090051
 20
10.06782441784404
 30
0.0
 10
10.6997085407595
 20
10.05780091882131
 30
0.0
 10
10.71135559942664
 20
10.03762762145109
 30
0.0
 10
10.71721717009155
 20
10.02747508324731
 30
0.0
 10
10.72310128796363
 20
10.01728349213515
 30
0.0
  0
ARC
  5
148
330
1F
100
AcDbEntity
  8
0
  6
Continuous
 62
     7
370
    15
100
AcDbCircle
 10
10.3739013333
 20
9.6221155556
 30
0.0
 40
0.5273502691896242
100
AcDbArc
 50
228.5337780898
 51
251.4662219102
  0
SPLINE
  5
149
330
1F
100
AcDbEntity
  8
0
  6
Continuous
 62
     7
370
    15
100
AcDbSpline
210
0.0
220
0.0
230
1.0
 70
    24
 71
     3
 72
    16
 73
    12
 74
     0
 42
0.00000001
 43
0.00000001
 40
0.0
 40
0.0
 40
0.0
 40
0.0
 40
0.2500000000000002
 40
0.2500000000000002
 40
0.5000000000000003
 40
0.5000000000000003
 40
0.7500000000000004
 40
0.7500000000000004
 40
0.8750000000000002
 40
0.8750000000000002
 40
1.0
 40
1.0
 40
1.0
 40
1.0
 10
10.20627583880948
 20
9.122115555555554
 30
0.0
 10
10.19448020451168
 20
9.122115555555554
 30
0.0
 10
10.18270710287019
 20
9.122115555555554
 30
0.0
 10
10.15931255531356
 20
9.122115555555554
 30
0.0
 10
10.14761706839771
 20
9.122115555555554
 30
0.0
 10
10.12477195288292
 20
9.122115555555554
 30
0.0
 10
10.11354961697678
 20
9.122115555555554
 30
0.0
 10
10.09899469666407
 20
9.122115555555554
 30
0.0
 10
10.09442083184967
 20
9.122115555555554
 30
0.0
 10
10.08749006731541
 20
9.122115555555554
 30
0.0
 10
10.08522619873846
 20
9.122115555555554
 30
0.0
 10
10.08522619873846
 20
9.122115555555554
 30
0.0
  0
SPLINE
  5
14A
330
1F
100
AcDbEntity
  8
0
  6
Continuous
 62
     7
370
    15
100
AcDbSpline
210
0.0
220
0.0
230
1.0
 70
    24
 71
     3
 72
    18
 73
    14
 74
     0
 42
0.00000001
 43
0.00000001
 40
0.0
 40
0.0
 40
0.0
 40
0.0
 40
0.1250000000000009
 40
0.1250000000000009
 40
0.2500000000000018
 40
0.2500000000000018
 40
0.3750000000000028
 40
0.3750000000000028
 40
0.5000000000000037
 40
0.5000000000000037
 40
0.7500000000000018
 40
0.7500000000000018
 40
1.0
 40
1.0
 40
1.0
 40
1.0
 10
10.08522619873853
 20
9.122115555555554
 30
0.0
 10
10.08522619873853
 20
9.122115555555553
 30
0.0
 10
10.08409264005882
 20
9.124078936782173
 30
0.0
 10
10.08061599935236
 20
9.13010065512542
 30
0.0
 10
10.07835555684613
 20
9.134015856393797
 30
0.0
 10
10.07340212642454
 20
9.142595449555762
 30
0.0
 10
10.07075987221896
 20
9.14717196808633
 30
0.0
 10
10.06530078064521
 20
9.15662739205523
 30
0.0
 10
10.06245884899039
 20
9.161549762073028
 30
0.0
 10
10.05388119576618
 20
9.176406693267065
 30
0.0
 10
10.04809412590719
 20
9.18643019228979
 30
0.0
 10
10.03644706724005
 20
9.206603489660013
 30
0.0
 10
10.03058549657513
 20
9.216756027863795
 30
0.0
 10
10.02470137870306
 20
9.226947618975956
 30
0.0
  0
ARC
  5
14B
330
1F
100
AcDbEntity
  8
0
  6
Continuous
 62
     7
370
    15
100
AcDbCircle
 10
10.3739013333
 20
9.6221155556
 30
0.0
 40
0.5273502691896275
100
AcDbArc
 50
108.5337780898
 51
131.4662219102
  0
SPLINE
  5
14C
330
1F
100
AcDbEntity
  8
0
  6
Continuous
 62
     7
370
    15
100
AcDbSpline
210
0.0
220
0.0
230
1.0
 70
    24
 71
     3
 72
    16
 73
    12
 74
     0
 42
0.00000001
 43
0.00000001
 40
0.0
 40
0.0
 40
0.0
 40
0.0
 40
0.2499999999999998
 40
0.2499999999999998
 40
0.4999999999999999
 40
0.4999999999999999
 40
0.7499999999999999
 40
0.7499999999999999
 40
0.875
 40
0.875
 40
1.0
 40
1.0
 40
1.0
 40
1.0
 10
10.02470137870306
 20
10.01728349213515
 30
0.0
 10
10.03059919585196
 20
10.02749881109079
 30
0.0
 10
10.0364857466727
 20
10.03769461619366
 30
0.0
 10
10.04818302045102
 20
10.05795488868774
 30
0.0
 10
10.05403076390894
 20
10.0680834774665
 30
0.0
 10
10.06545332166634
 20
10.0878679278547
 30
0.0
 10
10.0710644896194
 20
10.09758675583921
 30
0.0
 10
10.07834194977576
 20
10.11019168658008
 30
0.0
 10
10.08062888218296
 20
10.11415276970282
 30
0.0
 10
10.08409426445009
 20
10.12015498785715
 30
0.0
 10
10.08522619873856
 20
10.12211555555561
 30
0.0
 10
10.08522619873856
 20
10.12211555555561
 30
0.0
  0
SPLINE
  5
14D
330
1F
100
AcDbEntity
  8
0
  6
Continuous
 62
     7
370
    15
100
AcDbSpline
210
0.0
220
0.0
230
1.0
 70
    24
 71
     3
 72
    18
 73
    14
 74
     0
 42
0.00000001
 43
0.00000001
 40
0.0
 40
0.0
 40
0.0
 40
0.0
 40
0.1249999999999998
 40
0.1249999999999998
 40
0.2499999999999997
 40
0.2499999999999997
 40
0.3749999999999995
 40
0.3749999999999995
 40
0.4999999999999993
 40
0.4999999999999993
 40
0.7499999999999997
 40
0.7499999999999997
 40
1.0
 40
1.0
 40
1.0
 40
1.0
 10
10.08522619873853
 20
10.12211555555555
 30
0.0
 10
10.08522619873853
 20
10.12211555555555
 30
0.0
 10
10.0874746147997
 20
10.12211555555555
 30
0.0
 10
10.09447296757743
 20
10.12211555555555
 30
0.0
 10
10.09899203400001
 20
10.12211555555555
 30
0.0
 10
10.10884625355986
 20
10.12211555555555
 30
0.0
 10
10.11411254585017
 20
10.12211555555555
 30
0.0
 10
10.12505594696541
 20
10.12211555555555
 30
0.0
 10
10.13073806790743
 20
10.12211555555555
 30
0.0
 10
10.14779584140738
 20
10.12211555555555
 30
0.0
 10
10.15935872817747
 20
10.12211555555555
 30
0.0
 10
10.18269252752413
 20
10.12211555555555
 30
0.0
 10
10.19449175565033
 20
10.12211555555555
 30
0.0
 10
10.20627583880948
 20
10.12211555555555
 30
0.0
  0
SPLINE
  5
14E
330
1F
100
AcDbEntity
  8
0
  6
Continuous
 62
     7
370
    15
100
AcDbSpline
210
0.0
220
0.0
230
1.0
 70
    24
 71
     3
 72
    18
 73
    14
 74
     0
 42
0.00000001
 43
0.00000001
 40
0.0
 40
0.0
 40
0.0
 40
0.0
 40
0.1249999999999998
 40
0.1249999999999998
 40
0.2499999999999996
 40
0.2499999999999996
 40
0.3749999999999993
 40
0.3749999999999993
 40
0.4999999999999994
 40
0.4999999999999994
 40
0.7499999999999997
 40
0.7499999999999997
 40
1.0
 40
1.0
 40
1.0
 40
1.0
 10
10.95125160252297
 20
9.622115555555553
 30
0.0
 10
10.95125160252297
 20
9.622115555555553
 30
0.0
 10
10.95012739449239
 20
9.620168370128303
 30
0.0
 10
10.94662821810352
 20
9.614107618838142
 30
0.0
 10
10.94436868489223
 20
9.610193992514803
 30
0.0
 10
10.9394415751123
 20
9.6016599880415
 30
0.0
 10
10.93680842896715
 20
9.597099245134332
 30
0.0
 10
10.93133672840953
 20
9.587621981764734
 30
0.0
 10
10.92849566793852
 20
9.582701120681572
 30
0.0
 10
10.91996678118855
 20
9.567928655498616
 30
0.0
 10
10.9141853378035
 20
9.557914901814629
 30
0.0
 10
10.90251843813017
 20
9.537707238813619
 30
0.0
 10
10.89661882406707
 20
9.52748880751128
 30
0.0
 10
10.8907267824875
 20
9.51728349213515
 30
0.0
  0
ARC
  5
14F
330
1F
100
AcDbEntity
  8
0
  6
Continuous
 62
     7
370
    15
100
AcDbCircle
 10
10.3739013333
 20
9.6221155556
 30
0.0
 40
0.5273502691896262
100
AcDbArc
 50
348.5337780898
 51
11.4662219102
  0
SPLINE
  5
150
330
1F
100
AcDbEntity
  8
0
  6
Continuous
 62
     7
370
    15
100
AcDbSpline
210
0.0
220
0.0
230
1.0
 70
    24
 71
     3
 72
    18
 73
    14
 74
     0
 42
0.00000001
 43
0.00000001
 40
0.0
 40
0.0
 40
0.0
 40
0.0
 40
0.25
 40
0.25
 40
0.5
 40
0.5
 40
0.625
 40
0.625
 40
0.75
 40
0.75
 40
0.875
 40
0.875
 40
1.0
 40
1.0
 40
1.0
 40
1.0
 10
10.8907267824875
 20
9.726947618975956
 30
0.0
 10
10.89660404097344
 20
9.716767908669086
 30
0.0
 10
10.90249572307503
 20
9.706563215927087
 30
0.0
 10
10.91424703860179
 20
9.68620934037897
 30
0.0
 10
10.92005524881186
 20
9.67614922519408
 30
0.0
 10
10.92858522890953
 20
9.66137486627737
 30
0.0
 10
10.93141407908456
 20
9.656475154047225
 30
0.0
 10
10.93688644446265
 20
9.646996739174785
 30
0.0
 10
10.93955092182625
 20
9.642381729005418
 30
0.0
 10
10.94443268184765
 20
9.633926272617988
 30
0.0
 10
10.94669709456019
 20
9.630004194750565
 30
0.0
 10
10.95012857639832
 20
9.62406069386167
 30
0.0
 10
10.95125160252297
 20
9.62211555555555
 30
0.0
 10
10.95125160252297
 20
9.62211555555555
 30
0.0
  0
ARC
  5
151
330
1F
100
AcDbEntity
  8
0
  6
Continuous
 62
     7
370
    15
100
AcDbCircle
 10
10.3739013333
 20
9.6221155556
 30
0.0
 40
0.5273502691896259
100
AcDbArc
 50
168.5337780898
 51
191.4662219102
  0
SPLINE
  5
152
330
1F
100
AcDbEntity
  8
0
  6
Continuous
 62
     7
370
    15
100
AcDbSpline
210
0.0
220
0.0
230
1.0
 70
    24
 71
     3
 72
    18
 73
    14
 74
     0
 42
0.00000001
 43
0.00000001
 40
0.0
 40
0.0
 40
0.0
 40
0.0
 40
0.1249999999999998
 40
0.1249999999999998
 40
0.2499999999999997
 40
0.2499999999999997
 40
0.3749999999999995
 40
0.3749999999999995
 40
0.4999999999999993
 40
0.4999999999999993
 40
0.7499999999999997
 40
0.7499999999999997
 40
1.0
 40
1.0
 40
1.0
 40
1.0
 10
9.796551064143717
 20
9.622115555555553
 30
0.0
 10
9.796551064143717
 20
9.622115555555553
 30
0.0
 10
9.797675272174303
 20
9.624062740982803
 30
0.0
 10
9.801174448563168
 20
9.630123492272963
 30
0.0
 10
9.803433981774454
 20
9.634037118596302
 30
0.0
 10
9.808361091554382
 20
9.642571123069606
 30
0.0
 10
9.810994237699541
 20
9.647131865976773
 30
0.0
 10
9.816465938257158
 20
9.656609129346371
 30
0.0
 10
9.819306998728168
 20
9.661529990429536
 30
0.0
 10
9.827835885478141
 20
9.67630245561249
 30
0.0
 10
9.83361732886319
 20
9.686316209296477
 30
0.0
 10
9.845284228536515
 20
9.706523872297486
 30
0.0
 10
9.851183842599616
 20
9.716742303599826
 30
0.0
 10
9.85707588417919
 20
9.726947618975956
 30
0.0
  0
SPLINE
  5
153
330
1F
100
AcDbEntity
  8
0
  6
Continuous
 62
     7
370
    15
100
AcDbSpline
210
0.0
220
0.0
230
1.0
 70
    24
 71
     3
 72
    18
 73
    14
 74
     0
 42
0.00000001
 43
0.00000001
 40
0.0
 40
0.0
 40
0.0
 40
0.0
 40
0.25
 40
0.25
 40
0.5
 40
0.5
 40
0.625
 40
0.625
 40
0.75
 40
0.75
 40
0.875
 40
0.875
 40
1.0
 40
1.0
 40
1.0
 40
1.0
 10
9.85707588417919
 20
9.517283492135151
 30
0.0
 10
9.851198625693245
 20
9.527463202442021
 30
0.0
 10
9.845306943591657
 20
9.537667895184022
 30
0.0
 10
9.8335556280649
 20
9.558021770732136
 30
0.0
 10
9.827747417854825
 20
9.568081885917026
 30
0.0
 10
9.819217437757157
 20
9.582856244833737
 30
0.0
 10
9.81638858758213
 20
9.587755957063884
 30
0.0
 10
9.810916222204037
 20
9.597234371936322
 30
0.0
 10
9.80825174484044
 20
9.601849382105689
 30
0.0
 10
9.803369984819037
 20
9.61030483849312
 30
0.0
 10
9.801105572106497
 20
9.614226916360542
 30
0.0
 10
9.797674090268366
 20
9.620170417249437
 30
0.0
 10
9.796551064143715
 20
9.622115555555556
 30
0.0
 10
9.796551064143715
 20
9.622115555555556
 30
0.0
  0
ARC
  5
154
330
1F
100
AcDbEntity
  8
0
  6
Continuous
 62
     7
370
    15
100
AcDbCircle
 10
10.3739013333
 20
9.6221155556
 30
0.0
 40
0.5273502691896266
100
AcDbArc
 50
288.5337780898
 51
311.4662219102
  0
SPLINE
  5
155
330
1F
100
AcDbEntity
  8
0
  6
Continuous
 62
     7
370
    15
100
AcDbSpline
210
0.0
220
0.0
230
1.0
 70
    24
 71
     3
 72
    18
 73
    14
 74
     0
 42
0.00000001
 43
0.00000001
 40
0.0
 40
0.0
 40
0.0
 40
0.0
 40
0.1250000000000001
 40
0.1250000000000001
 40
0.2500000000000001
 40
0.2500000000000001
 40
0.3750000000000002
 40
0.3750000000000002
 40
0.5000000000000002
 40
0.5000000000000002
 40
0.7500000000000001
 40
0.7500000000000001
 40
1.0
 40
1.0
 40
1.0
 40
1.0
 10
10.66257646792816
 20
9.122115555555554
 30
0.0
 10
10.66257646792816
 20
9.122115555555554
 30
0.0
 10
10.66032805186699
 20
9.122115555555554
 30
0.0
 10
10.65332969908926
 20
9.122115555555554
 30
0.0
 10
10.64881063266668
 20
9.122115555555554
 30
0.0
 10
10.63895641310683
 20
9.122115555555554
 30
0.0
 10
10.63369012081651
 20
9.122115555555554
 30
0.0
 10
10.62274671970127
 20
9.122115555555554
 30
0.0
 10
10.61706459875926
 20
9.122115555555554
 30
0.0
 10
10.60000682525931
 20
9.122115555555554
 30
0.0
 10
10.58844393848921
 20
9.122115555555554
 30
0.0
 10
10.56511013914256
 20
9.122115555555554
 30
0.0
 10
10.55331091101636
 20
9.122115555555554
 30
0.0
 10
10.54152682785721
 20
9.122115555555554
 30
0.0
  0
SPLINE
  5
156
330
1F
100
AcDbEntity
  8
0
  6
Continuous
 62
     7
370
    15
100
AcDbSpline
210
0.0
220
0.0
230
1.0
 70
    24
 71
     3
 72
    16
 73
    12
 74
     0
 42
0.00000001
 43
0.00000001
 40
0.0
 40
0.0
 40
0.0
 40
0.0
 40
0.25
 40
0.25
 40
0.5
 40
0.5
 40
0.75
 40
0.75
 40
0.875
 40
0.875
 40
1.0
 40
1.0
 40
1.0
 40
1.0
 10
10.72310128796363
 20
9.226947618975956
 30
0.0
 10
10.71720347081473
 20
9.216732300020313
 30
0.0
 10
10.71131691999399
 20
9.206536494917447
 30
0.0
 10
10.69961964621567
 20
9.186276222423365
 30
0.0
 10
10.69377190275775
 20
9.176147633644607
 30
0.0
 10
10.68234934500035
 20
9.156363183256408
 30
0.0
 10
10.67673817704728
 20
9.146644355271892
 30
0.0
 10
10.66946071689093
 20
9.134039424531025
 30
0.0
 10
10.66717378448373
 20
9.130078341408282
 30
0.0
 10
10.6637084022166
 20
9.124076123253959
 30
0.0
 10
10.66257646792812
 20
9.122115555555498
 30
0.0
 10
10.66257646792812
 20
9.122115555555496
 30
0.0
  0
LINE
  5
157
330
1F
100
AcDbEntity
  8
0
  6
Continuous
 62
     7
370
    15
100
AcDbLine
 10
10.2062758388
 20
9.1221155556
 30
0.0
 11
10.5415268279
 21
9.1221155556
 31
0.0
  0
LINE
  5
158
330
1F
100
AcDbEntity
  8
0
  6
Continuous
 62
     7
370
    15
100
AcDbLine
 10
10.723101288
 20
9.226947619
 30
0.0
 11
10.8907267825
 21
9.5172834921
 31
0.0
  0
LINE
  5
159
330
1F
100
AcDbEntity
  8
0
  6
Continuous
 62
     7
370
    15
100
AcDbLine
 10
10.0247013787
 20
10.0172834921
 30
0.0
 11
9.8570758842
 21
9.726947619
 31
0.0
  0
LINE
  5
15A
330
1F
100
AcDbEntity
  8
0
  6
Continuous
 62
     7
370
    15
100
AcDbLine
 10
10.5415268279
 20
10.1221155556
 30
0.0
 11
10.2062758388
 21
10.1221155556
 31
0.0
  0
LINE
  5
15B
330
1F
100
AcDbEntity
  8
0
  6
Continuous
 62
     7
370
    15
100
AcDbLine
 10
9.8570758842
 20
9.5172834921
 30
0.0
 11
10.0247013787
 21
9.226947619
 31
0.0
  0
LINE
  5
15C
330
1F
100
AcDbEntity
  8
0
  6
Continuous
 62
     7
370
    15
100
AcDbLine
 10
10.8907267825
 20
9.726947619
 30
0.0
 11
10.723101288
 21
10.0172834921
 31
0.0
  0
SPLINE
  5
15D
330
1F
100
AcDbEntity
  8
0
  6
Continuous
 62
     7
370
    15
100
AcDbSpline
210
0.0
220
0.0
230
1.0
 70
    24
 71
     3
 72
    22
 73
    18
 74
     0
 42
0.00000001
 43
0.00000001
 40
0.0
 40
0.0
 40
0.0
 40
0.0
 40
0.2499999999999984
 40
0.2499999999999984
 40
0.4999999999999966
 40
0.4999999999999966
 40
0.6249999999999959
 40
0.6249999999999959
 40
0.7499999999999952
 40
0.7499999999999952
 40
0.8124999999999963
 40
0.8124999999999963
 40
0.8749999999999976
 40
0.8749999999999976
 40
0.9374999999999987
 40
0.9374999999999987
 40
1.0
 40
1.0
 40
1.0
 40
1.0
 10
9.50878158605124
 20
9.400546912479303
 30
0.0
 10
9.496487573033486
 20
9.421840767654965
 30
0.0
 10
9.484219605761925
 20
9.4430895102749
 30
0.0
 10
9.459790279947955
 20
9.485402343779352
 30
0.0
 10
9.447626501963967
 20
9.506470625259606
 30
0.0
 10
9.429536406105548
 20
9.537803590400177
 30
0.0
 10
9.423519832271463
 20
9.548224601968304
 30
0.0
 10
9.41188375922991
 20
9.568378871676856
 30
0.0
 10
9.406197360650202
 20
9.578228002928999
 30
0.0
 10
9.39835663513552
 20
9.591808537888628
 30
0.0
 10
9.39585077756436
 20
9.596148810518406
 30
0.0
 10
9.391138990055415
 20
9.604309865878372
 30
0.0
 10
9.388963569356122
 20
9.608077805057382
 30
0.0
 10
9.385215292099236
 20
9.614570011707164
 30
0.0
 10
9.38363632617866
 20
9.617304860905023
 30
0.0
 10
9.38146816366663
 20
9.621060228534922
 30
0.0
 10
9.380858870327186
 20
9.622115555555553
 30
0.0
 10
9.380858870327186
 20
9.622115555555553
 30
0.0
  0
SPLINE
  5
15E
330
1F
100
AcDbEntity
  8
0
  6
Continuous
 62
     7
370
    15
100
AcDbSpline
210
0.0
220
0.0
230
1.0
 70
    24
 71
     3
 72
    22
 73
    18
 74
     0
 42
0.00000001
 43
0.00000001
 40
0.0
 40
0.0
 40
0.0
 40
0.0
 40
0.0625000000000011
 40
0.0625000000000011
 40
0.1250000000000021
 40
0.1250000000000021
 40
0.1875000000000032
 40
0.1875000000000032
 40
0.2500000000000043
 40
0.2500000000000043
 40
0.3750000000000034
 40
0.3750000000000034
 40
0.5000000000000027
 40
0.5000000000000027
 40
0.7500000000000013
 40
0.7500000000000013
 40
1.0
 40
1.0
 40
1.0
 40
1.0
 10
9.380858870327186
 20
9.622115555555553
 30
0.0
 10
9.380858870327186
 20
9.622115555555553
 30
0.0
 10
9.381454144088893
 20
9.623146599955241
 30
0.0
 10
9.38366439255543
 20
9.626974862596633
 30
0.0
 10
9.385237040785606
 20
9.629698769233732
 30
0.0
 10
9.389012423191813
 20
9.636237923379285
 30
0.0
 10
9.391167101738422
 20
9.639969936095987
 30
0.0
 10
9.395850507780084
 20
9.648081833312624
 30
0.0
 10
9.398397233861573
 20
9.65249289227872
 30
0.0
 10
9.40626314670603
 20
9.66611705297323
 30
0.0
 10
9.411859513945656
 20
9.675810245370077
 30
0.0
 10
9.423480167217326
 20
9.695937807253753
 30
0.0
 10
9.429450859524373
 20
9.706279349685916
 30
0.0
 10
9.447400169984483
 20
9.737368467363655
 30
0.0
 10
9.459558201498972
 20
9.758426795666773
 30
0.0
 10
9.484069686058977
 20
9.800881932293642
 30
0.0
 10
9.496440196824778
 20
9.822308285455588
 30
0.0
 10
9.508781586051239
 20
9.8436841986318
 30
0.0
  0
ARC
  5
15F
330
1F
100
AcDbEntity
  8
0
  6
Continuous
 62
     7
370
    15
100
AcDbCircle
 10
10.3739013333
 20
9.6221155556
 30
0.0
 40
0.8930424630061564
100
AcDbArc
 50
165.6345731606
 51
194.3654268394
  0
SPLINE
  5
160
330
1F
100
AcDbEntity
  8
0
  6
Continuous
 62
     7
370
    15
100
AcDbSpline
210
0.0
220
0.0
230
1.0
 70
    24
 71
     3
 72
    22
 73
    18
 74
     0
 42
0.00000001
 43
0.00000001
 40
0.0
 40
0.0
 40
0.0
 40
0.0
 40
0.0625
 40
0.0625
 40
0.125
 40
0.125
 40
0.1874999999999999
 40
0.1874999999999999
 40
0.2499999999999999
 40
0.2499999999999999
 40
0.3749999999999999
 40
0.3749999999999999
 40
0.4999999999999999
 40
0.4999999999999999
 40
0.7499999999999999
 40
0.7499999999999999
 40
1.0
 40
1.0
 40
1.0
 40
1.0
 10
11.3669437963395
 20
9.622115555555556
 30
0.0
 10
11.36694379633954
 20
9.622115555555622
 30
0.0
 10
11.36634852257787
 20
9.621084511155996
 30
0.0
 10
11.36413827411138
 20
9.617256248514693
 30
0.0
 10
11.36256562588123
 20
9.614532341877633
 30
0.0
 10
11.35879024347505
 20
9.60799318773212
 30
0.0
 10
11.35663556492845
 20
9.60426117501543
 30
0.0
 10
11.35195215888679
 20
9.596149277798814
 30
0.0
 10
11.34940543280531
 20
9.591738218832717
 30
0.0
 10
11.34153951996085
 20
9.578114058138206
 30
0.0
 10
11.33594315272121
 20
9.568420865741349
 30
0.0
 10
11.32432249944953
 20
9.548293303857648
 30
0.0
 10
11.31835180714247
 20
9.537951761425461
 30
0.0
 10
11.30040249668233
 20
9.506862643747663
 30
0.0
 10
11.28824446516781
 20
9.485804315444504
 30
0.0
 10
11.26373298060776
 20
9.44334917881755
 30
0.0
 10
11.25136246984193
 20
9.42192282565556
 30
0.0
 10
11.23902108061545
 20
9.400546912479305
 30
0.0
  0
ARC
  5
161
330
1F
100
AcDbEntity
  8
0
  6
Continuous
 62
     7
370
    15
100
AcDbCircle
 10
10.3739013333
 20
9.6221155556
 30
0.0
 40
0.8930424630061569
100
AcDbArc
 50
345.6345731606
 51
14.3654268394
  0
SPLINE
  5
162
330
1F
100
AcDbEntity
  8
0
  6
Continuous
 62
     7
370
    15
100
AcDbSpline
210
0.0
220
0.0
230
1.0
 70
    24
 71
     3
 72
    22
 73
    18
 74
     0
 42
0.00000001
 43
0.00000001
 40
0.0
 40
0.0
 40
0.0
 40
0.0
 40
0.2500000000000014
 40
0.2500000000000014
 40
0.5000000000000026
 40
0.5000000000000026
 40
0.6250000000000038
 40
0.6250000000000038
 40
0.7500000000000049
 40
0.7500000000000049
 40
0.8125000000000037
 40
0.8125000000000037
 40
0.8750000000000024
 40
0.8750000000000024
 40
0.9375000000000013
 40
0.9375000000000013
 40
1.0
 40
1.0
 40
1.0
 40
1.0
 10
11.23902108061545
 20
9.843684198631802
 30
0.0
 10
11.25131509363323
 20
9.822390343456096
 30
0.0
 10
11.26358306090481
 20
9.801141600836118
 30
0.0
 10
11.28801238671883
 20
9.758828767331579
 30
0.0
 10
11.30017616470285
 20
9.737760485851283
 30
0.0
 10
11.3182662605613
 20
9.70642752071065
 30
0.0
 10
11.32428283439539
 20
9.696006509142505
 30
0.0
 10
11.33591890743697
 20
9.675852239433922
 30
0.0
 10
11.34160530601668
 20
9.66600310818177
 30
0.0
 10
11.34944603153136
 20
9.652422573222141
 30
0.0
 10
11.35195188910252
 20
9.648082300592366
 30
0.0
 10
11.35666367661146
 20
9.639921245232411
 30
0.0
 10
11.35883909731074
 20
9.63615330605342
 30
0.0
 10
11.3625873745676
 20
9.629661099403684
 30
0.0
 10
11.36416634048816
 20
9.626926250205862
 30
0.0
 10
11.36633450300013
 20
9.623170882576057
 30
0.0
 10
11.36694379633954
 20
9.622115555555487
 30
0.0
 10
11.3669437963395
 20
9.622115555555553
 30
0.0
  0
ARC
  5
163
330
1F
100
AcDbEntity
  8
0
  6
Continuous
 62
     7
370
    15
100
AcDbCircle
 10
10.3739013333
 20
9.6221155556
 30
0.0
 40
0.8930424630061565
100
AcDbArc
 50
105.6345731606
 51
134.3654268394
  0
SPLINE
  5
164
330
1F
100
AcDbEntity
  8
0
  6
Continuous
 62
     7
370
    15
100
AcDbSpline
210
0.0
220
0.0
230
1.0
 70
    24
 71
     3
 72
    22
 73
    18
 74
     0
 42
0.00000001
 43
0.00000001
 40
0.0
 40
0.0
 40
0.0
 40
0.0
 40
0.2499999999999998
 40
0.2499999999999998
 40
0.4999999999999996
 40
0.4999999999999996
 40
0.6249999999999997
 40
0.6249999999999997
 40
0.7499999999999998
 40
0.7499999999999998
 40
0.8124999999999998
 40
0.8124999999999998
 40
0.8749999999999999
 40
0.8749999999999999
 40
0.9374999999999999
 40
0.9374999999999999
 40
1.0
 40
1.0
 40
1.0
 40
1.0
 10
9.749457386106211
 20
10.2605469124793
 30
0.0
 10
9.761778048213843
 20
10.28188692523261
 30
0.0
 10
9.774096746327377
 20
10.30322353624835
 30
0.0
 10
9.798725911755398
 20
10.3458825021177
 30
0.0
 10
9.811028374421191
 20
10.36719099251308
 30
0.0
 10
9.829102057978904
 20
10.39849553071496
 30
0.0
 10
9.83502095803124
 20
10.40874736633053
 30
0.0
 10
9.846499787245202
 20
10.42862928174052
 30
0.0
 10
9.852102393366113
 20
10.43833328019673
 30
0.0
 10
9.859971886837382
 20
10.4519636427188
 30
0.0
 10
9.862474365734888
 20
10.45629806331415
 30
0.0
 10
9.867153314653546
 20
10.46440224056728
 30
0.0
 10
9.869316603098282
 20
10.46814916606499
 30
0.0
 10
9.87301712747438
 20
10.47455866229904
 30
0.0
 10
9.874596075499813
 20
10.4772934805016
 30
0.0
 10
9.876773879685272
 20
10.48106554799975
 30
0.0
 10
9.877380101830271
 20
10.48211555555556
 30
0.0
 10
9.877380101830271
 20
10.48211555555556
 30
0.0
  0
SPLINE
  5
165
330
1F
100
AcDbEntity
  8
0
  6
Continuous
 62
     7
370
    15
100
AcDbSpline
210
0.0
220
0.0
230
1.0
 70
    24
 71
     3
 72
    22
 73
    18
 74
     0
 42
0.00000001
 43
0.00000001
 40
0.0
 40
0.0
 40
0.0
 40
0.0
 40
0.0625000000000002
 40
0.0625000000000002
 40
0.1250000000000003
 40
0.1250000000000003
 40
0.1875000000000005
 40
0.1875000000000005
 40
0.2500000000000007
 40
0.2500000000000007
 40
0.375000000000001
 40
0.375000000000001
 40
0.5000000000000013
 40
0.5000000000000013
 40
0.7500000000000007
 40
0.7500000000000007
 40
1.0
 40
1.0
 40
1.0
 40
1.0
 10
9.877380101830264
 20
10.48211555555555
 30
0.0
 10
9.877380101830264
 20
10.48211555555555
 30
0.0
 10
9.878570649353678
 20
10.48211555555555
 30
0.0
 10
9.882991146286752
 20
10.48211555555555
 30
0.0
 10
9.886136442747105
 20
10.48211555555555
 30
0.0
 10
9.89368720755952
 20
10.48211555555555
 30
0.0
 10
9.897996564652733
 20
10.48211555555555
 30
0.0
 10
9.907363376736063
 20
10.48211555555555
 30
0.0
 10
9.912456828899037
 20
10.48211555555555
 30
0.0
 10
9.928188654587949
 20
10.48211555555555
 30
0.0
 10
9.939381389067204
 20
10.48211555555555
 30
0.0
 10
9.962622695610545
 20
10.48211555555555
 30
0.0
 10
9.974564080224638
 20
10.48211555555555
 30
0.0
 10
10.01046270114486
 20
10.48211555555555
 30
0.0
 10
10.03477876417384
 20
10.48211555555555
 30
0.0
 10
10.08380173329385
 20
10.48211555555555
 30
0.0
 10
10.10854275482545
 20
10.48211555555555
 30
0.0
 10
10.13322553327837
 20
10.48211555555555
 30
0.0
  0
ARC
  5
166
330
1F
100
AcDbEntity
  8
0
  6
Continuous
 62
     7
370
    15
100
AcDbCircle
 10
10.3739013333
 20
9.6221155556
 30
0.0
 40
0.8930424630061559
100
AcDbArc
 50
285.6345731606
 51
314.3654268394
  0
SPLINE
  5
167
330
1F
100
AcDbEntity
  8
0
  6
Continuous
 62
     7
370
    15
100
AcDbSpline
210
0.0
220
0.0
230
1.0
 70
    24
 71
     3
 72
    22
 73
    18
 74
     0
 42
0.00000001
 43
0.00000001
 40
0.0
 40
0.0
 40
0.0
 40
0.0
 40
0.0625000000000002
 40
0.0625000000000002
 40
0.1250000000000003
 40
0.1250000000000003
 40
0.1875000000000005
 40
0.1875000000000005
 40
0.2500000000000007
 40
0.2500000000000007
 40
0.375000000000001
 40
0.375000000000001
 40
0.5000000000000013
 40
0.5000000000000013
 40
0.7500000000000007
 40
0.7500000000000007
 40
1.0
 40
1.0
 40
1.0
 40
1.0
 10
10.87042256483642
 20
8.762115555555553
 30
0.0
 10
10.87042256483642
 20
8.762115555555553
 30
0.0
 10
10.86923201731301
 20
8.762115555555553
 30
0.0
 10
10.86481152037994
 20
8.762115555555553
 30
0.0
 10
10.86166622391958
 20
8.762115555555553
 30
0.0
 10
10.85411545910717
 20
8.762115555555553
 30
0.0
 10
10.84980610201395
 20
8.762115555555553
 30
0.0
 10
10.84043928993063
 20
8.762115555555553
 30
0.0
 10
10.83534583776765
 20
8.762115555555553
 30
0.0
 10
10.81961401207874
 20
8.762115555555553
 30
0.0
 10
10.80842127759948
 20
8.762115555555553
 30
0.0
 10
10.78517997105614
 20
8.762115555555553
 30
0.0
 10
10.77323858644205
 20
8.762115555555553
 30
0.0
 10
10.73733996552183
 20
8.762115555555553
 30
0.0
 10
10.71302390249285
 20
8.762115555555553
 30
0.0
 10
10.66400093337284
 20
8.762115555555553
 30
0.0
 10
10.63925991184124
 20
8.762115555555553
 30
0.0
 10
10.61457713338831
 20
8.762115555555553
 30
0.0
  0
SPLINE
  5
168
330
1F
100
AcDbEntity
  8
0
  6
Continuous
 62
     7
370
    15
100
AcDbSpline
210
0.0
220
0.0
230
1.0
 70
    24
 71
     3
 72
    22
 73
    18
 74
     0
 42
0.00000001
 43
0.00000001
 40
0.0
 40
0.0
 40
0.0
 40
0.0
 40
0.2499999999999997
 40
0.2499999999999997
 40
0.4999999999999994
 40
0.4999999999999994
 40
0.6249999999999997
 40
0.6249999999999997
 40
0.7499999999999998
 40
0.7499999999999998
 40
0.8124999999999999
 40
0.8124999999999999
 40
0.8749999999999999
 40
0.8749999999999999
 40
0.9375
 40
0.9375
 40
1.0
 40
1.0
 40
1.0
 40
1.0
 10
10.99834528056047
 20
8.983684198631803
 30
0.0
 10
10.98602461845284
 20
8.962344185878496
 30
0.0
 10
10.97370592033931
 20
8.941007574862754
 30
0.0
 10
10.94907675491129
 20
8.898348608993402
 30
0.0
 10
10.9367742922455
 20
8.877040118598027
 30
0.0
 10
10.91870060868778
 20
8.845735580396148
 30
0.0
 10
10.91278170863545
 20
8.835483744780579
 30
0.0
 10
10.90130287942148
 20
8.81560182937059
 30
0.0
 10
10.89570027330057
 20
8.805897830914379
 30
0.0
 10
10.8878307798293
 20
8.792267468392309
 30
0.0
 10
10.8853283009318
 20
8.787933047796956
 30
0.0
 10
10.88064935201314
 20
8.779828870543824
 30
0.0
 10
10.8784860635684
 20
8.776081945046114
 30
0.0
 10
10.87478553919231
 20
8.769672448812067
 30
0.0
 10
10.87320659116688
 20
8.766937630609506
 30
0.0
 10
10.87102878698142
 20
8.763165563111356
 30
0.0
 10
10.87042256483642
 20
8.762115555555544
 30
0.0
 10
10.87042256483642
 20
8.762115555555544
 30
0.0
  0
ARC
  5
169
330
1F
100
AcDbEntity
  8
0
  6
Continuous
 62
     7
370
    15
100
AcDbCircle
 10
10.3739013333
 20
9.6221155556
 30
0.0
 40
0.8930424630061565
100
AcDbArc
 50
45.6345731606
 51
74.3654268394
  0
SPLINE
  5
16A
330
1F
100
AcDbEntity
  8
0
  6
Continuous
 62
     7
370
    15
100
AcDbSpline
210
0.0
220
0.0
230
1.0
 70
    24
 71
     3
 72
    22
 73
    18
 74
     0
 42
0.00000001
 43
0.00000001
 40
0.0
 40
0.0
 40
0.0
 40
0.0
 40
0.2500000000000003
 40
0.2500000000000003
 40
0.5000000000000007
 40
0.5000000000000007
 40
0.6250000000000003
 40
0.6250000000000003
 40
0.7500000000000001
 40
0.7500000000000001
 40
0.8125000000000001
 40
0.8125000000000001
 40
0.875
 40
0.875
 40
0.9375
 40
0.9375
 40
1.0
 40
1.0
 40
1.0
 40
1.0
 10
10.61457713338831
 20
10.48211555555555
 30
0.0
 10
10.63921845760358
 20
10.48211555555555
 30
0.0
 10
10.66385585383064
 20
10.48211555555555
 30
0.0
 10
10.71311418468668
 20
10.48211555555555
 30
0.0
 10
10.73771911001827
 20
10.48211555555555
 30
0.0
 10
10.7738664771337
 20
10.48211555555555
 30
0.0
 10
10.78570427723837
 20
10.48211555555555
 30
0.0
 10
10.8086619356663
 20
10.48211555555555
 30
0.0
 10
10.81986714790812
 20
10.48211555555555
 30
0.0
 10
10.83560613485066
 20
10.48211555555555
 30
0.0
 10
10.84061109264567
 20
10.48211555555555
 30
0.0
 10
10.84996899048298
 20
10.48211555555555
 30
0.0
 10
10.85429556737246
 20
10.48211555555555
 30
0.0
 10
10.86169661612465
 20
10.48211555555555
 30
0.0
 10
10.86485451217552
 20
10.48211555555555
 30
0.0
 10
10.86921012054644
 20
10.48211555555555
 30
0.0
 10
10.87042256483643
 20
10.48211555555555
 30
0.0
 10
10.87042256483643
 20
10.48211555555555
 30
0.0
  0
SPLINE
  5
16B
330
1F
100
AcDbEntity
  8
0
  6
Continuous
 62
     7
370
    15
100
AcDbSpline
210
0.0
220
0.0
230
1.0
 70
    24
 71
     3
 72
    20
 73
    16
 74
     0
 42
0.00000001
 43
0.00000001
 40
0.0
 40
0.0
 40
0.0
 40
0.0
 40
0.0625000000000001
 40
0.0625000000000001
 40
0.1250000000000003
 40
0.1250000000000003
 40
0.2500000000000006
 40
0.2500000000000006
 40
0.3750000000000008
 40
0.3750000000000008
 40
0.5000000000000011
 40
0.5000000000000011
 40
0.7500000000000003
 40
0.7500000000000003
 40
1.0
 40
1.0
 40
1.0
 40
1.0
 10
10.87042256483642
 20
10.48211555555555
 30
0.0
 10
10.87042256483642
 20
10.48211555555555
 30
0.0
 10
10.87102158436479
 20
10.4810780232977
 30
0.0
 10
10.87320313977565
 20
10.47729945848656
 30
0.0
 10
10.87478932806808
 20
10.47455209977369
 30
0.0
 10
10.88038162748431
 20
10.46486595305365
 30
0.0
 10
10.88527762393085
 20
10.45638583845457
 30
0.0
 10
10.89569649498751
 20
10.43833982442693
 30
0.0
 10
10.90136659690604
 20
10.42851891981994
 30
0.0
 10
10.91292324294237
 20
10.40850222171991
 30
0.0
 10
10.91882631915273
 20
10.39827779380263
 30
0.0
 10
10.9367837548444
 20
10.367174602811
 30
0.0
 10
10.94912674023067
 20
10.34579592500489
 30
0.0
 10
10.97371059401847
 20
10.30321544119858
 30
0.0
 10
10.98602301241314
 20
10.28188970697497
 30
0.0
 10
10.99834528056047
 20
10.2605469124793
 30
0.0
  0
ARC
  5
16C
330
1F
100
AcDbEntity
  8
0
  6
Continuous
 62
     7
370
    15
100
AcDbCircle
 10
10.3739013333
 20
9.6221155556
 30
0.0
 40
0.8930424630061559
100
AcDbArc
 50
225.6345731606
 51
254.3654268394
  0
SPLINE
  5
16D
330
1F
100
AcDbEntity
  8
0
  6
Continuous
 62
     7
370
    15
100
AcDbSpline
210
0.0
220
0.0
230
1.0
 70
    24
 71
     3
 72
    22
 73
    18
 74
     0
 42
0.00000001
 43
0.00000001
 40
0.0
 40
0.0
 40
0.0
 40
0.0
 40
0.2500000000000006
 40
0.2500000000000006
 40
0.5000000000000012
 40
0.5000000000000012
 40
0.6250000000000014
 40
0.6250000000000014
 40
0.7500000000000016
 40
0.7500000000000016
 40
0.8125000000000012
 40
0.8125000000000012
 40
0.8750000000000008
 40
0.8750000000000008
 40
0.9375000000000004
 40
0.9375000000000004
 40
1.0
 40
1.0
 40
1.0
 40
1.0
 10
10.13322553327837
 20
8.762115555555553
 30
0.0
 10
10.10858420906311
 20
8.762115555555553
 30
0.0
 10
10.08394681283604
 20
8.762115555555553
 30
0.0
 10
10.03468848198
 20
8.762115555555553
 30
0.0
 10
10.01008355664841
 20
8.762115555555553
 30
0.0
 10
9.973936189532987
 20
8.762115555555553
 30
0.0
 10
9.962098389428313
 20
8.762115555555553
 30
0.0
 10
9.93914073100039
 20
8.762115555555553
 30
0.0
 10
9.92793551875857
 20
8.762115555555553
 30
0.0
 10
9.912196531816033
 20
8.762115555555553
 30
0.0
 10
9.907191574021017
 20
8.762115555555553
 30
0.0
 10
9.897833676183703
 20
8.762115555555553
 30
0.0
 10
9.893507099294231
 20
8.762115555555553
 30
0.0
 10
9.886106050542036
 20
8.762115555555553
 30
0.0
 10
9.88294815449117
 20
8.762115555555553
 30
0.0
 10
9.878592546120252
 20
8.762115555555553
 30
0.0
 10
9.877380101830255
 20
8.762115555555553
 30
0.0
 10
9.877380101830255
 20
8.762115555555553
 30
0.0
  0
SPLINE
  5
16E
330
1F
100
AcDbEntity
  8
0
  6
Continuous
 62
     7
370
    15
100
AcDbSpline
210
0.0
220
0.0
230
1.0
 70
    24
 71
     3
 72
    20
 73
    16
 74
     0
 42
0.00000001
 43
0.00000001
 40
0.0
 40
0.0
 40
0.0
 40
0.0
 40
0.0624999999999999
 40
0.0624999999999999
 40
0.1249999999999997
 40
0.1249999999999997
 40
0.2499999999999999
 40
0.2499999999999999
 40
0.3750000000000001
 40
0.3750000000000001
 40
0.5000000000000002
 40
0.5000000000000002
 40
0.7499999999999999
 40
0.7499999999999999
 40
1.0
 40
1.0
 40
1.0
 40
1.0
 10
9.877380101830266
 20
8.762115555555553
 30
0.0
 10
9.877380101830266
 20
8.762115555555553
 30
0.0
 10
9.876781082301898
 20
8.763153087813409
 30
0.0
 10
9.874599526891037
 20
8.76693165262455
 30
0.0
 10
9.873013338598604
 20
8.769679011337415
 30
0.0
 10
9.86742103918238
 20
8.779365158057452
 30
0.0
 10
9.862525042735843
 20
8.787845272656533
 30
0.0
 10
9.85210617167918
 20
8.80589128668418
 30
0.0
 10
9.846436069760653
 20
8.815712191291164
 30
0.0
 10
9.834879423724312
 20
8.835728889391195
 30
0.0
 10
9.82897634751396
 20
8.845953317308476
 30
0.0
 10
9.811018911822284
 20
8.87705650830011
 30
0.0
 10
9.798675926436012
 20
8.898435186106212
 30
0.0
 10
9.774092072648214
 20
8.941015669912522
 30
0.0
 10
9.761779654253543
 20
8.96234140413614
 30
0.0
 10
9.749457386106211
 20
8.983684198631803
 30
0.0
  0
LINE
  5
16F
330
1F
100
AcDbEntity
  8
0
  6
Continuous
 62
     7
370
    15
100
AcDbLine
 10
10.1332255333
 20
8.7621155556
 30
0.0
 11
10.6145771334
 21
8.7621155556
 31
0.0
  0
LINE
  5
170
330
1F
100
AcDbEntity
  8
0
  6
Continuous
 62
     7
370
    15
100
AcDbLine
 10
10.9983452806
 20
8.9836841986
 30
0.0
 11
11.2390210806
 21
9.4005469125
 31
0.0
  0
LINE
  5
171
330
1F
100
AcDbEntity
  8
0
  6
Continuous
 62
     7
370
    15
100
AcDbLine
 10
9.7494573861
 20
10.2605469125
 30
0.0
 11
9.5087815861
 21
9.8436841986
 31
0.0
  0
LINE
  5
172
330
1F
100
AcDbEntity
  8
0
  6
Continuous
 62
     7
370
    15
100
AcDbLine
 10
10.6145771334
 20
10.4821155556
 30
0.0
 11
10.1332255333
 21
10.4821155556
 31
0.0
  0
LINE
  5
173
330
1F
100
AcDbEntity
  8
0
  6
Continuous
 62
     7
370
    15
100
AcDbLine
 10
9.5087815861
 20
9.4005469125
 30
0.0
 11
9.7494573861
 21
8.9836841986
 31
0.0
  0
LINE
  5
174
330
1F
100
AcDbEntity
  8
0
  6
Continuous
 62
     7
370
    15
100
AcDbLine
 10
11.2390210806
 20
9.8436841986
 30
0.0
 11
10.9983452806
 21
10.2605469125
 31
0.0
  0
ARC
  5
175
330
1F
100
AcDbEntity
  8
0
  6
Continuous
 62
     7
370
    15
100
AcDbCircle
 10
10.3739013333
 20
9.6221155556
 30
0.0
 40
0.9100000000000015
100
AcDbArc
 50
11.5783501196
 51
30.0
  0
ARC
  5
176
330
1F
100
AcDbEntity
  8
0
  6
Continuous
 62
     7
370
    15
100
AcDbCircle
 10
10.3739013333
 20
9.6221155556
 30
0.0
 40
0.9099999999999999
100
AcDbArc
 50
311.4134373965
 51
348.596853664
  0
ARC
  5
177
330
1F
100
AcDbEntity
  8
0
  6
Continuous
 62
     7
370
    15
100
AcDbCircle
 10
10.3739013333
 20
9.6221155556
 30
0.0
 40
0.9099999999999998
100
AcDbArc
 50
251.5695353168
 51
288.4132201268
  0
ARC
  5
178
330
1F
100
AcDbEntity
  8
0
  6
Continuous
 62
     7
370
    15
100
AcDbCircle
 10
10.3739013333
 20
9.6221155556
 30
0.0
 40
0.9099999999999999
100
AcDbArc
 50
191.4235712293
 51
228.6073002875
  0
ARC
  5
179
330
1F
100
AcDbEntity
  8
0
  6
Continuous
 62
     7
370
    15
100
AcDbCircle
 10
10.3739013333
 20
9.6221155556
 30
0.0
 40
0.910000000000001
100
AcDbArc
 50
131.5603302284
 51
168.4051702768
  0
ARC
  5
17A
330
1F
100
AcDbEntity
  8
0
  6
Continuous
 62
     7
370
    15
100
AcDbCircle
 10
10.3739013333
 20
9.6221155556
 30
0.0
 40
0.9100000000000003
100
AcDbArc
 50
71.4335461483
 51
108.6179008307
  0
ARC
  5
17B
330
1F
100
AcDbEntity
  8
0
  6
Continuous
 62
     7
370
    15
100
AcDbCircle
 10
10.3739013333
 20
9.6221155556
 30
0.0
 40
0.9100000000000015
100
AcDbArc
 50
30.0
 51
48.3974952734
  0
ARC
  5
17C
330
1F
100
AcDbEntity
  8
0
  6
Continuous
 62
     7
370
    15
100
AcDbCircle
 10
10.3739013333
 20
9.6221155556
 30
0.0
 40
0.930000000000001
100
AcDbArc
 50
7.7672473796
 51
30.0
  0
ARC
  5
17D
330
1F
100
AcDbEntity
  8
0
  6
Continuous
 62
     7
370
    15
100
AcDbCircle
 10
10.3739013333
 20
9.6221155556
 30
0.0
 40
0.9299999999999998
100
AcDbArc
 50
308.2406561605
 51
351.7520483237
  0
ARC
  5
17E
330
1F
100
AcDbEntity
  8
0
  6
Continuous
 62
     7
370
    15
100
AcDbCircle
 10
10.3739013333
 20
9.6221155556
 30
0.0
 40
0.9300000000000004
100
AcDbArc
 50
247.9719562189
 51
292.2137946675
  0
ARC
  5
17F
330
1F
100
AcDbEntity
  8
0
  6
Continuous
 62
     7
370
    15
100
AcDbCircle
 10
10.3739013333
 20
9.6221155556
 30
0.0
 40
0.9299999999999997
100
AcDbArc
 50
188.1400579491
 51
231.8210905803
  0
ARC
  5
180
330
1F
100
AcDbEntity
  8
0
  6
Continuous
 62
     7
370
    15
100
AcDbCircle
 10
10.3739013333
 20
9.6221155556
 30
0.0
 40
0.9300000000000022
100
AcDbArc
 50
128.1281695759
 51
171.9387443315
  0
ARC
  5
181
330
1F
100
AcDbEntity
  8
0
  6
Continuous
 62
     7
370
    15
100
AcDbCircle
 10
10.3739013333
 20
9.6221155556
 30
0.0
 40
0.9300000000000016
100
AcDbArc
 50
67.9241400114
 51
111.9531724596
  0
ARC
  5
182
330
1F
100
AcDbEntity
  8
0
  6
Continuous
 62
     7
370
    15
100
AcDbCircle
 10
10.3739013333
 20
9.6221155556
 30
0.0
 40
0.9300000000000008
100
AcDbArc
 50
30.0
 51
51.7907361552
  0
SPLINE
  5
183
330
1F
100
AcDbEntity
  8
0
  6
Continuous
 62
     7
370
    15
100
AcDbSpline
210
0.0
220
0.0
230
1.0
 70
    24
 71
     3
 72
    22
 73
    18
 74
     0
 42
0.00000001
 43
0.00000001
 40
0.0
 40
0.0
 40
0.0
 40
0.0
 40
0.2500000000000003
 40
0.2500000000000003
 40
0.5000000000000007
 40
0.5000000000000007
 40
0.6250000000000011
 40
0.6250000000000011
 40
0.7500000000000014
 40
0.7500000000000014
 40
0.8125000000000011
 40
0.8125000000000011
 40
0.8750000000000007
 40
0.8750000000000007
 40
0.9375000000000003
 40
0.9375000000000003
 40
1.0
 40
1.0
 40
1.0
 40
1.0
 10
10.0798564404107
 20
8.684615555555554
 30
0.0
 10
10.05585145888855
 20
8.684615555555554
 30
0.0
 10
10.03189648914557
 20
8.684615555555554
 30
0.0
 10
9.984169590801107
 20
8.684615555555553
 30
0.0
 10
9.96024689893555
 20
8.684615555555553
 30
0.0
 10
9.92543218694642
 20
8.684615555555554
 30
0.0
 10
9.913995810746602
 20
8.684615555555554
 30
0.0
 10
9.891628256238901
 20
8.684615555555554
 30
0.0
 10
9.880825449631214
 20
8.684615555555554
 30
0.0
 10
9.865787798706801
 20
8.684615555555554
 30
0.0
 10
9.860944102765632
 20
8.684615555555553
 30
0.0
 10
9.852047865402966
 20
8.684615555555554
 30
0.0
 10
9.84796161409525
 20
8.684615555555554
 30
0.0
 10
9.840820440895488
 20
8.684615555555554
 30
0.0
 10
9.837894788890713
 20
8.684615555555554
 30
0.0
 10
9.833762169346544
 20
8.684615555555554
 30
0.0
 10
9.832635455967713
 20
8.684615555555554
 30
0.0
 10
9.832635455967706
 20
8.684615555555554
 30
0.0
  0
SPLINE
  5
184
330
1F
100
AcDbEntity
  8
0
  6
Continuous
 62
     7
370
    15
100
AcDbSpline
210
0.0
220
0.0
230
1.0
 70
    24
 71
     3
 72
    20
 73
    16
 74
     0
 42
0.00000001
 43
0.00000001
 40
0.0
 40
0.0
 40
0.0
 40
0.0
 40
0.0625
 40
0.0625
 40
0.125
 40
0.125
 40
0.25
 40
0.25
 40
0.375
 40
0.375
 40
0.5
 40
0.5
 40
0.75
 40
0.75
 40
1.0
 40
1.0
 40
1.0
 40
1.0
 10
9.83263545596807
 20
8.68461555555555
 30
0.0
 10
9.83263545596807
 20
8.68461555555555
 30
0.0
 10
9.832071692805014
 20
8.6855920219974
 30
0.0
 10
9.829975468658521
 20
8.689222788723178
 30
0.0
 10
9.828497499816084
 20
8.691782705850285
 30
0.0
 10
9.823110143991835
 20
8.701113879856335
 30
0.0
 10
9.818462831141678
 20
8.709163261831474
 30
0.0
 10
9.80832264977137
 20
8.726726571162812
 30
0.0
 10
9.802929221736859
 20
8.736068262545553
 30
0.0
 10
9.791759455187709
 20
8.755414865717361
 30
0.0
 10
9.785947487737603
 20
8.765481488632881
 30
0.0
 10
9.76849015737705
 20
8.795718471781877
 30
0.0
 10
9.756701633357391
 20
8.816136794330172
 30
0.0
 10
9.732967760851734
 20
8.857245067370332
 30
0.0
 10
9.721015880250501
 20
8.877946331817665
 30
0.0
 10
9.709024963746984
 20
8.898715208431069
 30
0.0
  0
SPLINE
  5
185
330
1F
100
AcDbEntity
  8
0
  6
Continuous
 62
     7
370
    15
100
AcDbSpline
210
0.0
220
0.0
230
1.0
 70
    24
 71
     3
 72
    22
 73
    18
 74
     0
 42
0.00000001
 43
0.00000001
 40
0.0
 40
0.0
 40
0.0
 40
0.0
 40
0.2499999999999997
 40
0.2499999999999997
 40
0.4999999999999994
 40
0.4999999999999994
 40
0.6250000000000001
 40
0.6250000000000001
 40
0.7500000000000007
 40
0.7500000000000007
 40
0.8125000000000006
 40
0.8125000000000006
 40
0.8750000000000003
 40
0.8750000000000003
 40
0.9375000000000002
 40
0.9375000000000002
 40
1.0
 40
1.0
 40
1.0
 40
1.0
 10
10.66794622625599
 20
10.55961555555555
 30
0.0
 10
10.69195120777814
 20
10.55961555555555
 30
0.0
 10
10.71590617752112
 20
10.55961555555555
 30
0.0
 10
10.76363307586558
 20
10.55961555555555
 30
0.0
 10
10.78755576773114
 20
10.55961555555555
 30
0.0
 10
10.82237047972026
 20
10.55961555555555
 30
0.0
 10
10.83380685592009
 20
10.55961555555555
 30
0.0
 10
10.85617441042779
 20
10.55961555555555
 30
0.0
 10
10.86697721703547
 20
10.55961555555555
 30
0.0
 10
10.88201486795989
 20
10.55961555555555
 30
0.0
 10
10.88685856390105
 20
10.55961555555555
 30
0.0
 10
10.89575480126372
 20
10.55961555555555
 30
0.0
 10
10.89984105257143
 20
10.55961555555555
 30
0.0
 10
10.9069822257712
 20
10.55961555555555
 30
0.0
 10
10.90990787777598
 20
10.55961555555555
 30
0.0
 10
10.91404049732014
 20
10.55961555555555
 30
0.0
 10
10.91516721069897
 20
10.55961555555555
 30
0.0
 10
10.91516721069898
 20
10.55961555555555
 30
0.0
  0
SPLINE
  5
186
330
1F
100
AcDbEntity
  8
0
  6
Continuous
 62
     7
370
    15
100
AcDbSpline
210
0.0
220
0.0
230
1.0
 70
    24
 71
     3
 72
    20
 73
    16
 74
     0
 42
0.00000001
 43
0.00000001
 40
0.0
 40
0.0
 40
0.0
 40
0.0
 40
0.0625000000000003
 40
0.0625000000000003
 40
0.1250000000000005
 40
0.1250000000000005
 40
0.2500000000000007
 40
0.2500000000000007
 40
0.3750000000000008
 40
0.3750000000000008
 40
0.5000000000000009
 40
0.5000000000000009
 40
0.7500000000000004
 40
0.7500000000000004
 40
1.0
 40
1.0
 40
1.0
 40
1.0
 10
10.91516721069862
 20
10.55961555555555
 30
0.0
 10
10.91516721069862
 20
10.55961555555555
 30
0.0
 10
10.91573097386167
 20
10.55863908911371
 30
0.0
 10
10.91782719800817
 20
10.55500832238793
 30
0.0
 10
10.9193051668506
 20
10.55244840526082
 30
0.0
 10
10.92469252267485
 20
10.54311723125477
 30
0.0
 10
10.92933983552501
 20
10.53506784927963
 30
0.0
 10
10.93948001689532
 20
10.51750453994829
 30
0.0
 10
10.94487344492983
 20
10.50816284856555
 30
0.0
 10
10.95604321147898
 20
10.48881624539374
 30
0.0
 10
10.96185517892908
 20
10.47874962247822
 30
0.0
 10
10.97931250928964
 20
10.44851263932923
 30
0.0
 10
10.9911010333093
 20
10.42809431678094
 30
0.0
 10
11.01483490581495
 20
10.38698604374077
 30
0.0
 10
11.02678678641619
 20
10.36628477929344
 30
0.0
 10
11.0387777029197
 20
10.34551590268004
 30
0.0
  0
SPLINE
  5
187
330
1F
100
AcDbEntity
  8
0
  6
Continuous
 62
     7
370
    15
100
AcDbSpline
210
0.0
220
0.0
230
1.0
 70
    24
 71
     3
 72
    22
 73
    18
 74
     0
 42
0.00000001
 43
0.00000001
 40
0.0
 40
0.0
 40
0.0
 40
0.0
 40
0.2500000000000006
 40
0.2500000000000006
 40
0.5000000000000011
 40
0.5000000000000011
 40
0.6250000000000011
 40
0.6250000000000011
 40
0.7500000000000012
 40
0.7500000000000012
 40
0.8125000000000009
 40
0.8125000000000009
 40
0.8750000000000006
 40
0.8750000000000006
 40
0.9375000000000003
 40
0.9375000000000003
 40
1.0
 40
1.0
 40
1.0
 40
1.0
 10
9.709024963746755
 20
10.34551590267964
 30
0.0
 10
9.72102745450783
 20
10.3663048264952
 30
0.0
 10
9.733004939379319
 20
10.38705043883951
 30
0.0
 10
9.756868388551549
 20
10.42838314524965
 30
0.0
 10
9.768829734484328
 20
10.44910080413213
 30
0.0
 10
9.786237090478894
 20
10.47925122914015
 30
0.0
 10
9.791955278578802
 20
10.48915542145643
 30
0.0
 10
9.803139055832652
 20
10.50852629188063
 30
0.0
 10
9.808540459136497
 20
10.51788179683506
 30
0.0
 10
9.816059284598703
 20
10.53090478454884
 30
0.0
 10
9.818481132569286
 20
10.5350995482821
 30
0.0
 10
9.82292925125062
 20
10.54280391583627
 30
0.0
 10
9.824972376904478
 20
10.546342713275
 30
0.0
 10
9.82854296350436
 20
10.55252715067881
 30
0.0
 10
9.830005789506746
 20
10.55506083963758
 30
0.0
 10
9.83207209927883
 20
10.55863979314701
 30
0.0
 10
9.832635455968246
 20
10.55961555555586
 30
0.0
 10
9.83263545596825
 20
10.55961555555587
 30
0.0
  0
SPLINE
  5
188
330
1F
100
AcDbEntity
  8
0
  6
Continuous
 62
     7
370
    15
100
AcDbSpline
210
0.0
220
0.0
230
1.0
 70
    24
 71
     3
 72
    22
 73
    18
 74
     0
 42
0.00000001
 43
0.00000001
 40
0.0
 40
0.0
 40
0.0
 40
0.0
 40
0.0625
 40
0.0625
 40
0.1250000000000001
 40
0.1250000000000001
 40
0.1875000000000001
 40
0.1875000000000001
 40
0.2500000000000001
 40
0.2500000000000001
 40
0.3750000000000002
 40
0.3750000000000002
 40
0.5000000000000002
 40
0.5000000000000002
 40
0.7500000000000002
 40
0.7500000000000002
 40
1.0
 40
1.0
 40
1.0
 40
1.0
 10
9.832635455968068
 20
10.55961555555555
 30
0.0
 10
9.832635455968068
 20
10.55961555555555
 30
0.0
 10
9.833753308274732
 20
10.55961555555555
 30
0.0
 10
9.837940831451958
 20
10.55961555555555
 30
0.0
 10
9.840912497570958
 20
10.55961555555555
 30
0.0
 10
9.848115962888526
 20
10.55961555555555
 30
0.0
 10
9.85223320668774
 20
10.55961555555555
 30
0.0
 10
9.861188472695577
 20
10.55961555555555
 30
0.0
 10
9.86606789159845
 20
10.55961555555555
 30
0.0
 10
9.881203839768204
 20
10.55961555555555
 30
0.0
 10
9.89198266560713
 20
10.55961555555555
 30
0.0
 10
9.91437468766849
 20
10.55961555555555
 30
0.0
 10
9.925960504455148
 20
10.55961555555555
 30
0.0
 10
9.96074229060602
 20
10.55961555555555
 30
0.0
 10
9.984312584815918
 20
10.55961555555555
 30
0.0
 10
10.0318594918788
 20
10.55961555555555
 30
0.0
 10
10.05589315142606
 20
10.55961555555555
 30
0.0
 10
10.0798564404107
 20
10.55961555555555
 30
0.0
  0
SPLINE
  5
189
330
1F
100
AcDbEntity
  8
0
  6
Continuous
 62
     7
370
    15
100
AcDbSpline
210
0.0
220
0.0
230
1.0
 70
    24
 71
     3
 72
    22
 73
    18
 74
     0
 42
0.00000001
 43
0.00000001
 40
0.0
 40
0.0
 40
0.0
 40
0.0
 40
0.0625
 40
0.0625
 40
0.1249999999999999
 40
0.1249999999999999
 40
0.1874999999999999
 40
0.1874999999999999
 40
0.2499999999999999
 40
0.2499999999999999
 40
0.3749999999999996
 40
0.3749999999999996
 40
0.4999999999999992
 40
0.4999999999999992
 40
0.7499999999999997
 40
0.7499999999999997
 40
1.0
 40
1.0
 40
1.0
 40
1.0
 10
9.291369578602794
 20
9.622115555555553
 30
0.0
 10
9.291369578602794
 20
9.622115555555553
 30
0.0
 10
9.291928504756125
 20
9.623083644050803
 30
0.0
 10
9.294022266344738
 20
9.626710145501217
 30
0.0
 10
9.29550809940424
 20
9.629283683851835
 30
0.0
 10
9.299109832063023
 20
9.63552206781213
 30
0.0
 10
9.30116845396263
 20
9.639087705535824
 30
0.0
 10
9.305646086966547
 20
9.646843193396256
 30
0.0
 10
9.308085796417984
 20
9.65106889412185
 30
0.0
 10
9.31565377050286
 20
9.664177009747222
 30
0.0
 10
9.321043183422326
 20
9.673511746746703
 30
0.0
 10
9.332239194453004
 20
9.69290380669394
 30
0.0
 10
9.338032102846334
 20
9.702937418354779
 30
0.0
 10
9.35542299592177
 20
9.733059328750432
 30
0.0
 10
9.36720814302672
 20
9.753471802310875
 30
0.0
 10
9.39098159655816
 20
9.794648631698708
 30
0.0
 10
9.402998426331791
 20
9.815462391412545
 30
0.0
 10
9.41498007082411
 20
9.836215208431467
 30
0.0
  0
SPLINE
  5
18A
330
1F
100
AcDbEntity
  8
0
  6
Continuous
 62
     7
370
    15
100
AcDbSpline
210
0.0
220
0.0
230
1.0
 70
    24
 71
     3
 72
    20
 73
    16
 74
     0
 42
0.00000001
 43
0.00000001
 40
0.0
 40
0.0
 40
0.0
 40
0.0
 40
0.2499999999999998
 40
0.2499999999999998
 40
0.4999999999999996
 40
0.4999999999999996
 40
0.6249999999999997
 40
0.6249999999999997
 40
0.7499999999999998
 40
0.7499999999999998
 40
0.8749999999999999
 40
0.8749999999999999
 40
0.9374999999999999
 40
0.9374999999999999
 40
1.0
 40
1.0
 40
1.0
 40
1.0
 10
9.41498007082411
 20
9.408015902679638
 30
0.0
 10
9.402995785072175
 20
9.428773294494412
 30
0.0
 10
9.390970135932239
 20
9.449602329798777
 30
0.0
 10
9.367176012587928
 20
9.490814960352685
 30
0.0
 10
9.355389507832392
 20
9.511229785432928
 30
0.0
 10
9.338019834946559
 20
9.54131494138204
 30
0.0
 10
9.332247269298495
 20
9.551313318374515
 30
0.0
 10
9.3210289730716
 20
9.570743977413853
 30
0.0
 10
9.315630827046638
 20
9.580093840595763
 30
0.0
 10
9.305529911327236
 20
9.597589139824743
 30
0.0
 10
9.3008536774724
 20
9.605688614449392
 30
0.0
 10
9.295495045499967
 20
9.614970037284706
 30
0.0
 10
9.294018769951313
 20
9.617527021540948
 30
0.0
 10
9.291928803629064
 20
9.621146949397192
 30
0.0
 10
9.291369578602794
 20
9.622115555555554
 30
0.0
 10
9.291369578602794
 20
9.622115555555553
 30
0.0
  0
SPLINE
  5
18B
330
1F
100
AcDbEntity
  8
0
  6
Continuous
 62
     7
370
    15
100
AcDbSpline
210
0.0
220
0.0
230
1.0
 70
    24
 71
     3
 72
    22
 73
    18
 74
     0
 42
0.00000001
 43
0.00000001
 40
0.0
 40
0.0
 40
0.0
 40
0.0
 40
0.0625000000000004
 40
0.0625000000000004
 40
0.1250000000000009
 40
0.1250000000000009
 40
0.1875000000000013
 40
0.1875000000000013
 40
0.2500000000000017
 40
0.2500000000000017
 40
0.3750000000000016
 40
0.3750000000000016
 40
0.5000000000000014
 40
0.5000000000000014
 40
0.7500000000000007
 40
0.7500000000000007
 40
1.0
 40
1.0
 40
1.0
 40
1.0
 10
11.45643308806389
 20
9.622115555555554
 30
0.0
 10
11.45643308806389
 20
9.622115555555556
 30
0.0
 10
11.45587416191056
 20
9.621147467060307
 30
0.0
 10
11.45378040032195
 20
9.617520965609895
 30
0.0
 10
11.45229456726245
 20
9.614947427259276
 30
0.0
 10
11.44869283460367
 20
9.608709043298981
 30
0.0
 10
11.44663421270406
 20
9.605143405575289
 30
0.0
 10
11.44215657970014
 20
9.597387917714856
 30
0.0
 10
11.43971687024871
 20
9.593162216989262
 30
0.0
 10
11.43214889616383
 20
9.58005410136389
 30
0.0
 10
11.42675948324436
 20
9.57071936436441
 30
0.0
 10
11.41556347221369
 20
9.551327304417173
 30
0.0
 10
11.40977056382036
 20
9.541293692756332
 30
0.0
 10
11.39237967074492
 20
9.511171782360679
 30
0.0
 10
11.38059452363997
 20
9.490759308800234
 30
0.0
 10
11.35682107010853
 20
9.449582479412399
 30
0.0
 10
11.34480424033489
 20
9.428768719698562
 30
0.0
 10
11.33282259584258
 20
9.408015902679638
 30
0.0
  0
SPLINE
  5
18C
330
1F
100
AcDbEntity
  8
0
  6
Continuous
 62
     7
370
    15
100
AcDbSpline
210
0.0
220
0.0
230
1.0
 70
    24
 71
     3
 72
    20
 73
    16
 74
     0
 42
0.00000001
 43
0.00000001
 40
0.0
 40
0.0
 40
0.0
 40
0.0
 40
0.2499999999999994
 40
0.2499999999999994
 40
0.4999999999999989
 40
0.4999999999999989
 40
0.6249999999999991
 40
0.6249999999999991
 40
0.7499999999999994
 40
0.7499999999999994
 40
0.8749999999999997
 40
0.8749999999999997
 40
0.9374999999999998
 40
0.9374999999999998
 40
1.0
 40
1.0
 40
1.0
 40
1.0
 10
11.33282259584258
 20
9.836215208431467
 30
0.0
 10
11.34480688159451
 20
9.815457816616695
 30
0.0
 10
11.35683253073445
 20
9.794628781312325
 30
0.0
 10
11.38062665407876
 20
9.753416150758417
 30
0.0
 10
11.3924131588343
 20
9.733001325678174
 30
0.0
 10
11.40978283172013
 20
9.70291616972906
 30
0.0
 10
11.4155553973682
 20
9.692917792736585
 30
0.0
 10
11.42677369359509
 20
9.673487133697247
 30
0.0
 10
11.43217183962005
 20
9.664137270515337
 30
0.0
 10
11.44227275533945
 20
9.646641971286359
 30
0.0
 10
11.44694898919429
 20
9.638542496661708
 30
0.0
 10
11.45230762116672
 20
9.629261073826395
 30
0.0
 10
11.45378389671538
 20
9.626704089570154
 30
0.0
 10
11.45587386303762
 20
9.623084161713912
 30
0.0
 10
11.45643308806389
 20
9.62211555555555
 30
0.0
 10
11.45643308806389
 20
9.622115555555553
 30
0.0
  0
SPLINE
  5
18D
330
1F
100
AcDbEntity
  8
0
  6
Continuous
 62
     7
370
    15
100
AcDbSpline
210
0.0
220
0.0
230
1.0
 70
    24
 71
     3
 72
    22
 73
    18
 74
     0
 42
0.00000001
 43
0.00000001
 40
0.0
 40
0.0
 40
0.0
 40
0.0
 40
0.0624999999999999
 40
0.0624999999999999
 40
0.1249999999999999
 40
0.1249999999999999
 40
0.1874999999999998
 40
0.1874999999999998
 40
0.2499999999999998
 40
0.2499999999999998
 40
0.3749999999999997
 40
0.3749999999999997
 40
0.4999999999999997
 40
0.4999999999999997
 40
0.7499999999999999
 40
0.7499999999999999
 40
1.0
 40
1.0
 40
1.0
 40
1.0
 10
10.91516721069862
 20
8.684615555555554
 30
0.0
 10
10.91516721069862
 20
8.684615555555553
 30
0.0
 10
10.91404935839196
 20
8.684615555555554
 30
0.0
 10
10.90986183521473
 20
8.684615555555554
 30
0.0
 10
10.90689016909573
 20
8.684615555555554
 30
0.0
 10
10.89968670377816
 20
8.684615555555553
 30
0.0
 10
10.89556945997895
 20
8.684615555555553
 30
0.0
 10
10.88661419397111
 20
8.684615555555554
 30
0.0
 10
10.88173477506824
 20
8.684615555555554
 30
0.0
 10
10.86659882689848
 20
8.684615555555554
 30
0.0
 10
10.85582000105956
 20
8.684615555555554
 30
0.0
 10
10.8334279789982
 20
8.684615555555554
 30
0.0
 10
10.82184216221154
 20
8.684615555555554
 30
0.0
 10
10.78706037606067
 20
8.684615555555554
 30
0.0
 10
10.76349008185077
 20
8.684615555555553
 30
0.0
 10
10.71594317478789
 20
8.684615555555553
 30
0.0
 10
10.69190951524063
 20
8.684615555555553
 30
0.0
 10
10.66794622625599
 20
8.684615555555554
 30
0.0
  0
SPLINE
  5
18E
330
1F
100
AcDbEntity
  8
0
  6
Continuous
 62
     7
370
    15
100
AcDbSpline
210
0.0
220
0.0
230
1.0
 70
    24
 71
     3
 72
    22
 73
    18
 74
     0
 42
0.00000001
 43
0.00000001
 40
0.0
 40
0.0
 40
0.0
 40
0.0
 40
0.2499999999999998
 40
0.2499999999999998
 40
0.4999999999999997
 40
0.4999999999999997
 40
0.6249999999999997
 40
0.6249999999999997
 40
0.7499999999999997
 40
0.7499999999999997
 40
0.8124999999999998
 40
0.8124999999999998
 40
0.8749999999999999
 40
0.8749999999999999
 40
0.9374999999999999
 40
0.9374999999999999
 40
1.0
 40
1.0
 40
1.0
 40
1.0
 10
11.03877770291993
 20
8.898715208431467
 30
0.0
 10
11.02677521215886
 20
8.877926284615908
 30
0.0
 10
11.01479772728737
 20
8.857180672271602
 30
0.0
 10
10.99093427811514
 20
8.81584796586146
 30
0.0
 10
10.97897293218236
 20
8.795130306978981
 30
0.0
 10
10.96156557618779
 20
8.764979881970955
 30
0.0
 10
10.95584738808788
 20
8.755075689654678
 30
0.0
 10
10.94466361083403
 20
8.735704819230474
 30
0.0
 10
10.93926220753019
 20
8.726349314276048
 30
0.0
 10
10.93174338206799
 20
8.713326326562262
 30
0.0
 10
10.9293215340974
 20
8.709131562829006
 30
0.0
 10
10.92487341541607
 20
8.701427195274839
 30
0.0
 10
10.92283028976221
 20
8.697888397836111
 30
0.0
 10
10.91925970316233
 20
8.69170396043229
 30
0.0
 10
10.91779687715994
 20
8.689170271473522
 30
0.0
 10
10.91573056738786
 20
8.685591317964096
 30
0.0
 10
10.91516721069844
 20
8.684615555555245
 30
0.0
 10
10.91516721069843
 20
8.684615555555238
 30
0.0
  0
LINE
  5
18F
330
1F
100
AcDbEntity
  8
0
  6
Continuous
 62
     7
370
    15
100
AcDbLine
 10
10.6679462263
 20
8.6846155556
 30
0.0
 11
10.0798564404
 21
8.6846155556
 31
0.0
  0
LINE
  5
190
330
1F
100
AcDbEntity
  8
0
  6
Continuous
 62
     7
370
    15
100
AcDbLine
 10
11.3328225958
 20
9.4080159027
 30
0.0
 11
11.0387777029
 21
8.8987152084
 31
0.0
  0
LINE
  5
191
330
1F
100
AcDbEntity
  8
0
  6
Continuous
 62
     7
370
    15
100
AcDbLine
 10
9.4149800708
 20
9.8362152084
 30
0.0
 11
9.7090249637
 21
10.3455159027
 31
0.0
  0
LINE
  5
192
330
1F
100
AcDbEntity
  8
0
  6
Continuous
 62
     7
370
    15
100
AcDbLine
 10
10.0798564404
 20
10.5596155556
 30
0.0
 11
10.6679462263
 21
10.5596155556
 31
0.0
  0
LINE
  5
193
330
1F
100
AcDbEntity
  8
0
  6
Continuous
 62
     7
370
    15
100
AcDbLine
 10
11.0387777029
 20
10.3455159027
 30
0.0
 11
11.3328225958
 21
9.8362152084
 31
0.0
  0
LINE
  5
194
330
1F
100
AcDbEntity
  8
0
  6
Continuous
 62
     7
370
    15
100
AcDbLine
 10
9.7090249637
 20
8.8987152084
 30
0.0
 11
9.4149800708
 21
9.4080159027
 31
0.0
  0
ARC
  5
195
330
1F
100
AcDbEntity
  8
0
  6
Continuous
 62
     8
370
    15
100
AcDbCircle
 10
10.3739013333
 20
9.6221155556
 30
0.0
 40
0.9825317547306858
100
AcDbArc
 50
227.4139227151
 51
238.7901365657
  0
ARC
  5
196
330
1F
100
AcDbEntity
  8
0
  6
Continuous
 62
     8
370
    15
100
AcDbCircle
 10
10.3739013333
 20
9.6221155556
 30
0.0
 40
0.9825317547305482
100
AcDbArc
 50
241.4774710325
 51
252.586077285
  0
ARC
  5
197
330
1F
100
AcDbEntity
  8
0
  6
Continuous
 62
     8
370
    15
100
AcDbCircle
 10
10.3739013333
 20
9.6221155556
 30
0.0
 40
0.9825317547306858
100
AcDbArc
 50
47.4139227151
 51
58.7901365657
  0
ARC
  5
198
330
1F
100
AcDbEntity
  8
0
  6
Continuous
 62
     8
370
    15
100
AcDbCircle
 10
10.3739013333
 20
9.6221155556
 30
0.0
 40
0.9825317547305495
100
AcDbArc
 50
61.4774710325
 51
72.586077285
  0
ARC
  5
199
330
1F
100
AcDbEntity
  8
0
  6
Continuous
 62
     8
370
    15
100
AcDbCircle
 10
10.3739013333
 20
9.6221155556
 30
0.0
 40
0.9825317547305488
100
AcDbArc
 50
107.413922715
 51
118.7901365657
  0
ARC
  5
19A
330
1F
100
AcDbEntity
  8
0
  6
Continuous
 62
     8
370
    15
100
AcDbCircle
 10
10.3739013333
 20
9.6221155556
 30
0.0
 40
0.9825317547305504
100
AcDbArc
 50
121.4774710325
 51
132.586077285
  0
ARC
  5
19B
330
1F
100
AcDbEntity
  8
0
  6
Continuous
 62
     8
370
    15
100
AcDbCircle
 10
10.3739013333
 20
9.6221155556
 30
0.0
 40
0.9825317547305483
100
AcDbArc
 50
167.413922715
 51
178.7901365657
  0
ARC
  5
19C
330
1F
100
AcDbEntity
  8
0
  6
Continuous
 62
     8
370
    15
100
AcDbCircle
 10
10.3739013333
 20
9.6221155556
 30
0.0
 40
0.9825317547305483
100
AcDbArc
 50
181.4774710325
 51
192.586077285
  0
ARC
  5
19D
330
1F
100
AcDbEntity
  8
0
  6
Continuous
 62
     8
370
    15
100
AcDbCircle
 10
10.3739013333
 20
9.6221155556
 30
0.0
 40
0.9825317547305483
100
AcDbArc
 50
347.413922715
 51
358.7901365657
  0
ARC
  5
19E
330
1F
100
AcDbEntity
  8
0
  6
Continuous
 62
     8
370
    15
100
AcDbCircle
 10
10.3739013333
 20
9.6221155556
 30
0.0
 40
0.9825317547305489
100
AcDbArc
 50
1.4774710325
 51
12.586077285
  0
ARC
  5
19F
330
1F
100
AcDbEntity
  8
0
  6
Continuous
 62
     8
370
    15
100
AcDbCircle
 10
10.3739013333
 20
9.6221155556
 30
0.0
 40
0.9825317547305488
100
AcDbArc
 50
287.413922715
 51
298.7901365657
  0
ARC
  5
1A0
330
1F
100
AcDbEntity
  8
0
  6
Continuous
 62
     8
370
    15
100
AcDbCircle
 10
10.3739013333
 20
9.6221155556
 30
0.0
 40
0.9825317547305479
100
AcDbArc
 50
301.4774710325
 51
312.586077285
  0
ENDSEC
  0
SECTION
  2
OBJECTS
  0
DICTIONARY
  5
C
330
0
100
AcDbDictionary
281
     1
  3
ACAD_GROUP
350
D
  3
ACAD_LAYOUT
350
1A
  3
ACAD_MLINESTYLE
350
17
  3
ACAD_PLOTSETTINGS
350
19
  3
ACAD_PLOTSTYLENAME
350
E
  0
DICTIONARY
  5
D
102
{ACAD_REACTORS
330
C
102
}
330
C
100
AcDbDictionary
281
     1
  0
DICTIONARY
  5
1A
102
{ACAD_REACTORS
330
C
102
}
330
C
100
AcDbDictionary
281
     1
  3
Layout1
350
1E
  3
Layout2
350
26
  3
Model
350
22
  0
DICTIONARY
  5
17
102
{ACAD_REACTORS
330
C
102
}
330
C
100
AcDbDictionary
281
     1
  3
Standard
350
18
  0
DICTIONARY
  5
19
102
{ACAD_REACTORS
330
C
102
}
330
C
100
AcDbDictionary
281
     1
  0
ACDBDICTIONARYWDFLT
  5
E
102
{ACAD_REACTORS
330
C
102
}
330
C
100
AcDbDictionary
281
     1
  3
Normal
350
F
100
AcDbDictionaryWithDefault
340
F
  0
LAYOUT
  5
1E
102
{ACAD_REACTORS
330
1A
102
}
330
1A
100
AcDbPlotSettings
  1

  2
none_device
  4

  6

 40
0.0
 41
0.0
 42
0.0
 43
0.0
 44
0.0
 45
0.0
 46
0.0
 47
0.0
 48
0.0
 49
0.0
140
0.0
141
0.0
142
1.0
143
1.0
 70
   688
 72
     0
 73
     0
 74
     5
  7

 75
    16
147
1.0
148
0.0
149
0.0
100
AcDbLayout
  1
Layout1
 70
     1
 71
     1
 10
0.0
 20
0.0
 11
12.0
 21
9.0
 12
0.0
 22
0.0
 32
0.0
 14
1.0000000000E+20
 24
1.0000000000E+20
 34
1.0000000000E+20
 15
-1.0000000000E+20
 25
-1.0000000000E+20
 35
-1.0000000000E+20
146
0.0
 13
0.0
 23
0.0
 33
0.0
 16
1.0
 26
0.0
 36
0.0
 17
0.0
 27
1.0
 37
0.0
 76
     0
330
1B
  0
LAYOUT
  5
26
102
{ACAD_REACTORS
330
1A
102
}
330
1A
100
AcDbPlotSettings
  1

  2
none_device
  4

  6

 40
0.0
 41
0.0
 42
0.0
 43
0.0
 44
0.0
 45
0.0
 46
0.0
 47
0.0
 48
0.0
 49
0.0
140
0.0
141
0.0
142
1.0
143
1.0
 70
   688
 72
     0
 73
     0
 74
     5
  7

 75
    16
147
1.0
148
0.0
149
0.0
100
AcDbLayout
  1
Layout2
 70
     1
 71
     2
 10
0.0
 20
0.0
 11
0.0
 21
0.0
 12
0.0
 22
0.0
 32
0.0
 14
0.0
 24
0.0
 34
0.0
 15
0.0
 25
0.0
 35
0.0
146
0.0
 13
0.0
 23
0.0
 33
0.0
 16
1.0
 26
0.0
 36
0.0
 17
0.0
 27
1.0
 37
0.0
 76
     0
330
23
  0
LAYOUT
  5
22
102
{ACAD_REACTORS
330
1A
102
}
330
1A
100
AcDbPlotSettings
  1

  2
none_device
  4

  6

 40
0.0
 41
0.0
 42
0.0
 43
0.0
 44
0.0
 45
0.0
 46
0.0
 47
0.0
 48
0.0
 49
0.0
140
0.0
141
0.0
142
1.0
143
1.0
 70
  1712
 72
     0
 73
     0
 74
     0
  7

 75
     0
147
1.0
148
0.0
149
0.0
100
AcDbLayout
  1
Model
 70
     1
 71
     0
 10
0.0
 20
0.0
 11
17.0
 21
11.0
 12
0.0
 22
0.0
 32
0.0
 14
0.0
 24
0.0
 34
0.0
 15
17.0
 25
11.0
 35
0.0
146
0.0
 13
0.0
 23
0.0
 33
0.0
 16
1.0
 26
0.0
 36
0.0
 17
0.0
 27
1.0
 37
0.0
 76
     0
330
1F
331
29
  0
MLINESTYLE
  5
18
102
{ACAD_REACTORS
330
17
102
}
330
17
100
AcDbMlineStyle
  2
Standard
 70
     0
  3

 62
   256
 51
90.0
 52
90.0
 71
     2
 49
0.5
 62
   256
  6
BYLAYER
 49
-0.5
 62
   256
  6
BYLAYER
  0
ACDBPLACEHOLDER
  5
F
102
{ACAD_REACTORS
330
E
102
}
330
E
  0
ENDSEC
  0
EOF
